[ Сегодня идет свободное скачивание без начисления Download ]


Статистика раздачи
Нет
 
   
 
Top  
 
 
Savage - Greatest Hits And More (1990) - Автор рипа: digital2015
Год: 1990
Жанр: Italo-Disco, Europop, Disco
Издание: Inter Sonus – IS-CD-001
Продолжительность: 01:06:44
Кодек: APE
Битрейт: Lossless
Тип рипа: image + .cue-Треклист:
01. Ten Years Ago (Dub Intro)
02. I'm Loosing You
03. Goodbye
04. Jane
05. I Just Died In Your Arms
06. Still I'm Loving You
07. So Close
08. Ten Years Ago
09. A Love Again (Remix)
10. Don't Cry Tonight
11. Radio
12. Only You
13. Time
14. Love Is Death
15. Don't Cry Tonight (Rap)
16. Tonight
17. Don't Leave Me-

Отчёт EAC:

Exact Audio Copy V1.0 beta 3 from 29. August 2011
Отчёт EAC об извлечении, выполненном 24. июня 2016, 16:08
Savage / Disco Collection
Дисковод: TSSTcorpCDDVDW TS-L633F   Adapter: 0  ID: 0
Режим чтения                 : Достоверность
Использование точного потока : Да
Отключение кэша аудио        : Да
Использование указателей C2  : Нет
Коррекция смещения при чтении                     : 6
Способность читать области Lead-in и Lead-out     : Нет
Заполнение пропущенных сэмплов тишиной            : Да
Удаление блоков с тишиной в начале и конце        : Нет
При вычислениях CRC использовались нулевые сэмплы : Да
Интерфейс                                         : Встроенный Win32-интерфейс для Win NT/2000
Выходной формат : Внутренние WAV-операции
Формат сэмплов  : 44.100 Гц; 16 бит; стерео
TOC извлечённого CD
     Трек |   Старт  | Длительность | Начальный сектор | Конечный сектор
    ---------------------------------------------------------------------
       1  |  0:00.00 |    0:45.21   |           0      |       3395
       2  |  0:45.21 |    3:31.44   |        3396      |      19264
       3  |  4:16.65 |    4:40.27   |       19265      |      40291
       4  |  8:57.17 |    4:14.51   |       40292      |      59392
       5  | 13:11.68 |    3:29.72   |       59393      |      75139
       6  | 16:41.65 |    3:36.10   |       75140      |      91349
       7  | 20:18.00 |    3:27.36   |       91350      |     106910
       8  | 23:45.36 |    3:30.62   |      106911      |     122722
       9  | 27:16.23 |    5:38.17   |      122723      |     148089
      10  | 32:54.40 |    3:56.25   |      148090      |     165814
      11  | 36:50.65 |    4:44.44   |      165815      |     187158
      12  | 41:35.34 |    3:44.51   |      187159      |     204009
      13  | 45:20.10 |    4:48.50   |      204010      |     225659
      14  | 50:08.60 |    3:54.34   |      225660      |     243243
      15  | 54:03.19 |    4:12.09   |      243244      |     262152
      16  | 58:15.28 |    3:44.23   |      262153      |     278975
      17  | 61:59.51 |    4:44.15   |      278976      |     300290
Характеристики диапазона извлечения и сообщения об ошибках
Выбранный диапазон
     Имя файла D:\torrent razdacha\NNMClub\[NNMClub] Savage – Greatest Hits And More [CD] - 1990 (APE)\Savage - Disco Collection.wav
     Пиковый уровень 100.0 %
     Скорость извлечения 1.1 X
     Качество диапазона 99.9 %
     CRC теста 490E629F
     CRC копии 490E629F
     Копирование... OK
Ошибок не произошло
AccurateRip: сводка
Трек  1  отсутствует в базе данных
Трек  2  отсутствует в базе данных
Трек  3  отсутствует в базе данных
Трек  4  отсутствует в базе данных
Трек  5  отсутствует в базе данных
Трек  6  отсутствует в базе данных
Трек  7  отсутствует в базе данных
Трек  8  отсутствует в базе данных
Трек  9  отсутствует в базе данных
Трек 10  отсутствует в базе данных
Трек 11  отсутствует в базе данных
Трек 12  отсутствует в базе данных
Трек 13  отсутствует в базе данных
Трек 14  отсутствует в базе данных
Трек 15  отсутствует в базе данных
Трек 16  отсутствует в базе данных
Трек 17  отсутствует в базе данных
Ни одного трека нет в базе AccurateRip
Конец отчёта
---- CUETools DB Plugin V2.1.3
[CTDB TOCID: 4IQzRumv0EojDfpJbqtu7KKo_BQ-] disk not present in database, Submit result: 4IQzRumv0EojDfpJbqtu7KKo_BQ- has been uploaded
==== Контрольная сумма отчёта C0C3CE3F3F82BC03679C75320E525D8D802B8D4AE25137811E361E2E3B5C03E0 ====

Cue Sheet (.cue):

REM GENRE Disco
REM DATE 2001
REM DISCID E00FA311
REM COMMENT "ExactAudioCopy v1.0b3"
PERFORMER "Savage"
TITLE "Disco Collection"
FILE "Savage - Greatest Hits And More.ape" WAVE
  TRACK 01 AUDIO
    TITLE "Ten Years Ago - Dub Intro"
    PERFORMER "Savage"
    FLAGS DCP
    INDEX 01 00:00:00
  TRACK 02 AUDIO
    TITLE "I'm Loosing You"
    PERFORMER "Savage"
    FLAGS DCP
    INDEX 00 00:43:21
    INDEX 01 00:45:21
  TRACK 03 AUDIO
    TITLE "Goodbye"
    PERFORMER "Savage"
    FLAGS DCP
    INDEX 00 04:14:65
    INDEX 01 04:16:65
  TRACK 04 AUDIO
    TITLE "Jane"
    PERFORMER "Savage"
    FLAGS DCP
    INDEX 00 08:55:17
    INDEX 01 08:57:17
  TRACK 05 AUDIO
    TITLE "I Just Died In Your Arms"
    PERFORMER "Savage"
    FLAGS DCP
    INDEX 00 13:09:68
    INDEX 01 13:11:68
  TRACK 06 AUDIO
    TITLE "Still I'm Loving You"
    PERFORMER "Savage"
    FLAGS DCP
    INDEX 00 16:39:65
    INDEX 01 16:41:65
  TRACK 07 AUDIO
    TITLE "So Close"
    PERFORMER "Savage"
    FLAGS DCP
    INDEX 00 20:16:00
    INDEX 01 20:18:00
  TRACK 08 AUDIO
    TITLE "Ten Years Ago"
    PERFORMER "Savage"
    FLAGS DCP
    INDEX 00 23:43:36
    INDEX 01 23:45:36
  TRACK 09 AUDIO
    TITLE "A Love Again (Remix)"
    PERFORMER "Savage"
    FLAGS DCP
    INDEX 00 27:14:23
    INDEX 01 27:16:23
  TRACK 10 AUDIO
    TITLE "Don't Cry Tonight"
    PERFORMER "Savage"
    FLAGS DCP
    INDEX 00 32:52:40
    INDEX 01 32:54:40
  TRACK 11 AUDIO
    TITLE "Radio"
    PERFORMER "Savage"
    FLAGS DCP
    INDEX 00 36:48:65
    INDEX 01 36:50:65
  TRACK 12 AUDIO
    TITLE "Only You"
    PERFORMER "Savage"
    FLAGS DCP
    INDEX 00 41:33:34
    INDEX 01 41:35:34
  TRACK 13 AUDIO
    TITLE "Time"
    PERFORMER "Savage"
    FLAGS DCP
    INDEX 00 45:18:10
    INDEX 01 45:20:10
  TRACK 14 AUDIO
    TITLE "Love Is Death"
    PERFORMER "Savage"
    FLAGS DCP
    INDEX 00 50:06:60
    INDEX 01 50:08:60
  TRACK 15 AUDIO
    TITLE "Don't Cry Tonight - Rap"
    PERFORMER "Savage"
    FLAGS DCP
    INDEX 00 54:01:19
    INDEX 01 54:03:19
  TRACK 16 AUDIO
    TITLE "Tonight"
    PERFORMER "Savage"
    FLAGS DCP
    INDEX 00 58:13:28
    INDEX 01 58:15:28
  TRACK 17 AUDIO
    TITLE "Don't Leave Me"
    PERFORMER "Savage"
    FLAGS DCP
    INDEX 00 61:57:51
    INDEX 01 61:59:51

Отчёт auCDtect Task manager:

-----------------------
DON'T MODIFY THIS FILE
-----------------------
PERFORMER: auCDtect Task Manager, ver. 1.6.0 RC1 build 1.6.0.1
Copyright (c) 2008-2010 y-soft. All rights reserved
http://y-soft.org
ANALYZER: auCDtect: CD records authenticity detector, version 0.8.2
Copyright (c) 2004 Oleg Berngardt. All rights reserved.
Copyright (c) 2004 Alexander Djourik. All rights reserved.
FILE: Savage - Greatest Hits And More.ape
  Size: 458806064 Hash: 9AE173214DD75AA2E813507D8E8768EC Accuracy: -m0
  Conclusion: CDDA 100%
  Signature: 869947A46B336CE22BCCC62491956619C56B474F

Отчёт DRM (DR9):

foobar2000 1.1.3 / Dynamic Range Meter 1.1.1
log date: 2016-06-24 19:31:32
--------------------------------------------------------------------------------
Analyzed: Savage / Disco Collection
--------------------------------------------------------------------------------
DR         Peak         RMS     Duration Track
--------------------------------------------------------------------------------
DR8        0.00 dB   -11.44 dB      0:45 ?-Ten Years Ago - Dub Intro
DR9        0.00 dB   -11.08 dB      3:32 ?-I'm Loosing You
DR9        0.00 dB   -11.05 dB      4:40 ?-Goodbye
DR8        0.00 dB   -11.03 dB      4:15 ?-Jane
DR10       0.00 dB   -11.06 dB      3:30 ?-I Just Died In Your Arms
DR8        0.00 dB   -11.03 dB      3:36 ?-Still I'm Loving You
DR9        0.00 dB   -11.11 dB      3:27 ?-So Close
DR8        0.00 dB   -11.09 dB      3:31 ?-Ten Years Ago
DR8        0.00 dB   -11.15 dB      5:38 ?-A Love Again (Remix)
DR10       0.00 dB   -11.03 dB      3:56 ?-Don't Cry Tonight
DR9        0.00 dB   -11.04 dB      4:45 ?-Radio
DR10       0.00 dB   -11.05 dB      3:45 ?-Only You
DR9        0.00 dB   -11.13 dB      4:49 ?-Time
DR9        0.00 dB   -11.08 dB      3:54 ?-Love Is Death
DR10       0.00 dB   -11.02 dB      4:12 ?-Don't Cry Tonight - Rap
DR9        0.00 dB   -11.04 dB      3:44 ?-Tonight
DR10       0.00 dB   -11.00 dB      4:44 ?-Don't Leave Me
--------------------------------------------------------------------------------
Number of tracks:  17
Official DR value: DR9
Samplerate:        44100 Hz
Channels:          2
Bits per sample:   16
Bitrate:           917 kbps
Codec:             Monkey's Audio
================================================================================

Спектрограмма:

Covers:

[Цитировать]



Показать сообщения:    

Текущее время: 09-Дек 10:50

Часовой пояс: UTC + 3


Вы не можете начинать темы
Вы не можете отвечать на сообщения
Вы не можете редактировать свои сообщения
Вы не можете удалять свои сообщения
Вы не можете голосовать в опросах
Вы не можете прикреплять файлы к сообщениям
Вы не можете скачивать файлы

!ВНИМАНИЕ!
Сайт не предоставляет электронные версии произведений, а занимается лишь коллекционированием и каталогизацией ссылок, присылаемых и публикуемых на форуме нашими читателями. Если вы являетесь правообладателем какого-либо представленного материала и не желаете, чтобы ссылка на него находилась в нашем каталоге, свяжитесь с нами, и мы незамедлительно удалим ее. Файлы для обмена на трекере предоставлены пользователями сайта, и администрация не несет ответственности за их содержание. Просьба не заливать файлы, защищенные авторскими правами, а также файлы нелегального содержания!