[ Сегодня идет свободное скачивание без начисления Download ]


Статистика раздачи
Нет
 
   
 
 
 
Example - The Evolution Of Man (Deluxe Version) Страна: UK
Тип альбома: Студийный
Год выпуска: 2012
Жанр: Electro House, Dubstep, Grime
Формат: M4A (tracks)
Битрейт аудио: lossless
Продолжительность: 01:30:12

Трэклист:

CD 1

? | 01. Come Taste The Rainbow [4:12]
? | 02. Close Enemies [4:23]
? | 03. Perfect Replacement [3:29]
? | 04. Crying Out For Help [4:14]
? | 05. Queen of Your Dreams [3:13]
? | 06. Say Nothing [3:41]
? | 07. All My Lows [5:50]
? | 08. The Evolution Of Man [3:57]
? | 09. One Way Mirror [4:40]
? | 10. Snakeskin [4:22]
? | 11. Blood From A Stone [4:50]
? | 12. Are You Sitting Comfortably? [3:37]
- | 13. We'll Be Coming Back (Calvin Harris & Example) [3:59]

CD 2

- | 01. Let's Be Fucking Stupid [4:05]
- | 02. Someone To Die For (Example & Dillon Francis) [4:35]
- | 03. Whisper (Example vs. AN21 & Max Vangeli) [4:01]
- | 04. Eutopia (Fade Away) (Example & Laidback Luke) [4:31]
- | 05. Daydreamer (Example & Flux Pavilion) [3:53]
- | 06. Say Nothing (Hardwell & Dannic Remix) [6:13]
- | 07. Close Enemies (Joker Remix) [4:06]
- | 08. Close Enemies (Dyro Remix) [4:22]

Лог создания рипа CD 1

Exact Audio Copy V1.0 beta 3 from 29. August 2011
EAC extraction logfile from 19. November 2012, 13:41
Example / The Evolution Of Man (Deluxe Version)
Used drive : ASUS DRW-24B3ST Adapter: 2 ID: 1
Read mode : Secure
Utilize accurate stream : Yes
Defeat audio cache : Yes
Make use of C2 pointers : No
Read offset correction : 6
Overread into Lead-In and Lead-Out : No
Fill up missing offset samples with silence : Yes
Delete leading and trailing silent blocks : No
Null samples used in CRC calculations : Yes
Used interface : Native Win32 interface for Win NT & 2000
Gap handling : Appended to previous track
Used output format : User Defined Encoder
Selected bitrate : 1024 kBit/s
Quality : High
Add ID3 tag : Yes
Command line compressor : C:\Program Files (x86)\Exact Audio Copy\Flac\flac.exe
Additional command line options : -8 -V -T "ARTIST=%artist%" -T "TITLE=%title%" -T "ALBUM=%albumtitle%" -T "DATE=%year%" -T "TRACKNUMBER=%tracknr%" -T "GENRE=%genre%" -T"PERFORMER=%albuminterpret%" -T "COMPOSER=%composer%" %haslyrics%--tag-from-file=LYRICS="%lyricsfile%"%haslyrics% -T "ALBUMARTIST=%albumartist%" -T "DISCNUMBER=%cdnumber%" -T "TOTALDISCS=%totalcds%" -T "TOTALTRACKS=%numtracks%" -T "COMMENT=%comment%" %source% -o %dest%
TOC of the extracted CD
Track | Start | Length | Start sector | End sector
---------------------------------------------------------
1 | 0:00.00 | 4:12.32 | 0 | 18931
2 | 4:12.32 | 4:22.69 | 18932 | 38650
3 | 8:35.26 | 3:28.57 | 38651 | 54307
4 | 12:04.08 | 4:13.55 | 54308 | 73337
5 | 16:17.63 | 3:12.69 | 73338 | 87806
6 | 19:30.57 | 3:41.26 | 87807 | 104407
7 | 23:12.08 | 5:50.35 | 104408 | 130692
8 | 29:02.43 | 3:56.71 | 130693 | 148463
9 | 32:59.39 | 4:39.40 | 148464 | 169428
10 | 37:39.04 | 4:22.04 | 169429 | 189082
11 | 42:01.08 | 4:49.72 | 189083 | 210829
12 | 46:51.05 | 3:37.06 | 210830 | 227110
13 | 50:28.11 | 3:58.39 | 227111 | 244999
Track 1
Filename C:\Example-The_Evolution_Of_Man_(Deluxe_Version)-2CD-FLAC-2012\(101) Come Taste The Rainbow.wav
Pre-gap length 0:00:02.00
Peak level 98.9 %
Extraction speed 3.4 X
Track quality 100.0 %
Test CRC 8AD8B49D
Copy CRC 8AD8B49D
Track not present in AccurateRip database
Copy OK
Track 2
Filename C:\Example-The_Evolution_Of_Man_(Deluxe_Version)-2CD-FLAC-2012\(102) Close Enemies.wav
Peak level 98.9 %
Extraction speed 3.2 X
Track quality 99.9 %
Test CRC A4B66FB8
Copy CRC A4B66FB8
Track not present in AccurateRip database
Copy OK
Track 3
Filename C:\Example-The_Evolution_Of_Man_(Deluxe_Version)-2CD-FLAC-2012\(103) Perfect Replacement.wav
Peak level 98.9 %
Extraction speed 4.1 X
Track quality 100.0 %
Test CRC 5E7FAB54
Copy CRC 5E7FAB54
Track not present in AccurateRip database
Copy OK
Track 4
Filename C:\Example-The_Evolution_Of_Man_(Deluxe_Version)-2CD-FLAC-2012\(104) Crying Out For Help.wav
Peak level 98.9 %
Extraction speed 4.5 X
Track quality 100.0 %
Test CRC 01AAB633
Copy CRC 01AAB633
Track not present in AccurateRip database
Copy OK
Track 5
Filename C:\Example-The_Evolution_Of_Man_(Deluxe_Version)-2CD-FLAC-2012\(105) Queen of Your Dreams.wav
Peak level 98.9 %
Extraction speed 3.5 X
Track quality 99.9 %
Test CRC B983490C
Copy CRC B983490C
Track not present in AccurateRip database
Copy OK
Track 6
Filename C:\Example-The_Evolution_Of_Man_(Deluxe_Version)-2CD-FLAC-2012\(106) Say Nothing.wav
Peak level 98.9 %
Extraction speed 4.9 X
Track quality 100.0 %
Test CRC C22B4690
Copy CRC C22B4690
Track not present in AccurateRip database
Copy OK
Track 7
Filename C:\Example-The_Evolution_Of_Man_(Deluxe_Version)-2CD-FLAC-2012\(107) All My Lows.wav
Peak level 98.9 %
Extraction speed 5.5 X
Track quality 100.0 %
Test CRC 9711A8EC
Copy CRC 9711A8EC
Track not present in AccurateRip database
Copy OK
Track 8
Filename C:\Example-The_Evolution_Of_Man_(Deluxe_Version)-2CD-FLAC-2012\(108) The Evolution Of Man.wav
Peak level 98.9 %
Extraction speed 5.5 X
Track quality 100.0 %
Test CRC D91F255A
Copy CRC D91F255A
Track not present in AccurateRip database
Copy OK
Track 9
Filename C:\Example-The_Evolution_Of_Man_(Deluxe_Version)-2CD-FLAC-2012\(109) One Way Mirror.wav
Peak level 98.9 %
Extraction speed 4.8 X
Track quality 99.9 %
Test CRC D9941EA9
Copy CRC D9941EA9
Track not present in AccurateRip database
Copy OK
Track 10
Filename C:\Example-The_Evolution_Of_Man_(Deluxe_Version)-2CD-FLAC-2012\(110) Snakeskin.wav
Peak level 98.9 %
Extraction speed 6.0 X
Track quality 100.0 %
Test CRC 8DCEDD54
Copy CRC 8DCEDD54
Track not present in AccurateRip database
Copy OK
Track 11
Filename C:\Example-The_Evolution_Of_Man_(Deluxe_Version)-2CD-FLAC-2012\(111) Blood From A Stone.wav
Peak level 98.9 %
Extraction speed 6.4 X
Track quality 100.0 %
Test CRC 994FFD69
Copy CRC 994FFD69
Track not present in AccurateRip database
Copy OK
Track 12
Filename C:\Example-The_Evolution_Of_Man_(Deluxe_Version)-2CD-FLAC-2012\(112) Are You Sitting Comfortably.wav
Peak level 98.9 %
Extraction speed 6.3 X
Track quality 100.0 %
Test CRC A418D9AD
Copy CRC A418D9AD
Track not present in AccurateRip database
Copy OK
Track 13
Filename C:\Example-The_Evolution_Of_Man_(Deluxe_Version)-2CD-FLAC-2012\(113) Well Be Coming Back (Calvin Harris and Example).wav
Peak level 100.0 %
Extraction speed 6.6 X
Track quality 100.0 %
Test CRC 06B1A2F0
Copy CRC 06B1A2F0
Track not present in AccurateRip database
Copy OK
None of the tracks are present in the AccurateRip database
No errors occurred
End of status report
---- CUETools DB Plugin V2.1.3
[CTDB TOCID: r_N.FwKYwZUzefYHPNCw2eyXAEk-] found, Submit result: already submitted
[5a40a279] (1/1) Accurately ripped
==== Log checksum 06C3A9DA21FA2E0F47728D60294A9B48003452DBFD73B96B237C43A66B1EE8C7 ====

Лог проверки качества CD 1

REM GENRE Electronic
REM DATE 2012
REM DISCID AC0CC20D
REM COMMENT "ExactAudioCopy v1.0b3"
CATALOG 5051275060829
PERFORMER "Example"
TITLE "The Evolution Of Man (Deluxe Version)"
FILE "(101) Come Taste The Rainbow.wav" WAVE
TRACK 01 AUDIO
TITLE "Come Taste The Rainbow"
PERFORMER "Example"
ISRC GBCEN1201189
INDEX 01 00:00:00
FILE "(102) Close Enemies.wav" WAVE
TRACK 02 AUDIO
TITLE "Close Enemies"
PERFORMER "Example"
ISRC GBCEN1201265
INDEX 01 00:00:00
FILE "(103) Perfect Replacement.wav" WAVE
TRACK 03 AUDIO
TITLE "Perfect Replacement"
PERFORMER "Example"
ISRC GBCEN1201191
INDEX 01 00:00:00
FILE "(104) Crying Out For Help.wav" WAVE
TRACK 04 AUDIO
TITLE "Crying Out For Help"
PERFORMER "Example"
ISRC GBCEN1201262
INDEX 01 00:00:00
FILE "(105) Queen of Your Dreams.wav" WAVE
TRACK 05 AUDIO
TITLE "Queen of Your Dreams"
PERFORMER "Example"
ISRC GBCEN1201263
INDEX 01 00:00:00
FILE "(106) Say Nothing.wav" WAVE
TRACK 06 AUDIO
TITLE "Say Nothing"
PERFORMER "Example"
ISRC GBCEN1201008
INDEX 01 00:00:00
FILE "(107) All My Lows.wav" WAVE
TRACK 07 AUDIO
TITLE "All My Lows"
PERFORMER "Example"
ISRC GBCEN1201192
INDEX 01 00:00:00
FILE "(108) The Evolution Of Man.wav" WAVE
TRACK 08 AUDIO
TITLE "The Evolution Of Man"
PERFORMER "Example"
ISRC GBCEN1201193
INDEX 01 00:00:00
FILE "(109) One Way Mirror.wav" WAVE
TRACK 09 AUDIO
TITLE "One Way Mirror"
PERFORMER "Example"
ISRC GBCEN1201266
INDEX 01 00:00:00
FILE "(110) Snakeskin.wav" WAVE
TRACK 10 AUDIO
TITLE "Snakeskin"
PERFORMER "Example"
ISRC GBCEN1201267
INDEX 01 00:00:00
FILE "(111) Blood From A Stone.wav" WAVE
TRACK 11 AUDIO
TITLE "Blood From A Stone"
PERFORMER "Example"
ISRC GBCEN1201268
INDEX 01 00:00:00
FILE "(112) Are You Sitting Comfortably.wav" WAVE
TRACK 12 AUDIO
TITLE "Are You Sitting Comfortably?"
PERFORMER "Example"
ISRC GBCEN1201269
INDEX 01 00:00:00
FILE "(113) Well Be Coming Back (Calvin Harris and Example).wav" WAVE
TRACK 13 AUDIO
TITLE "We'll Be Coming Back (Calvin Harris & Example)"
PERFORMER "Example"
ISRC GBARL1200642
INDEX 01 00:00:00

Лог создания рипа CD 2

Exact Audio Copy V1.0 beta 3 from 29. August 2011
EAC extraction logfile from 19. November 2012, 14:00
Example / The Evolution Of Man (Deluxe Version)
Used drive : ASUS DRW-24B3ST Adapter: 2 ID: 1
Read mode : Secure
Utilize accurate stream : Yes
Defeat audio cache : Yes
Make use of C2 pointers : No
Read offset correction : 6
Overread into Lead-In and Lead-Out : No
Fill up missing offset samples with silence : Yes
Delete leading and trailing silent blocks : No
Null samples used in CRC calculations : Yes
Used interface : Native Win32 interface for Win NT & 2000
Gap handling : Appended to previous track
Used output format : User Defined Encoder
Selected bitrate : 1024 kBit/s
Quality : High
Add ID3 tag : Yes
Command line compressor : C:\Program Files (x86)\Exact Audio Copy\Flac\flac.exe
Additional command line options : -8 -V -T "ARTIST=%artist%" -T "TITLE=%title%" -T "ALBUM=%albumtitle%" -T "DATE=%year%" -T "TRACKNUMBER=%tracknr%" -T "GENRE=%genre%" -T"PERFORMER=%albuminterpret%" -T "COMPOSER=%composer%" %haslyrics%--tag-from-file=LYRICS="%lyricsfile%"%haslyrics% -T "ALBUMARTIST=%albumartist%" -T "DISCNUMBER=%cdnumber%" -T "TOTALDISCS=%totalcds%" -T "TOTALTRACKS=%numtracks%" -T "COMMENT=%comment%" %source% -o %dest%
TOC of the extracted CD
Track | Start | Length | Start sector | End sector
---------------------------------------------------------
1 | 0:00.00 | 4:04.55 | 0 | 18354
2 | 4:04.55 | 4:34.66 | 18355 | 38970
3 | 8:39.46 | 4:00.47 | 38971 | 57017
4 | 12:40.18 | 4:31.29 | 57018 | 77371
5 | 17:11.47 | 3:52.43 | 77372 | 94814
6 | 21:04.15 | 6:13.37 | 94815 | 122826
7 | 27:17.52 | 4:06.36 | 122827 | 141312
8 | 31:24.13 | 4:22.01 | 141313 | 160963
Track 1
Filename C:\Example-The_Evolution_Of_Man_(Deluxe_Version)-2CD-FLAC-2012\(201) Lets Be Fucking Stupid.wav
Pre-gap length 0:00:02.00
Peak level 98.9 %
Extraction speed 3.4 X
Track quality 100.0 %
Test CRC A4195125
Copy CRC A4195125
Track not present in AccurateRip database
Copy OK
Track 2
Filename C:\Example-The_Evolution_Of_Man_(Deluxe_Version)-2CD-FLAC-2012\(202) Someone To Die For (Example and Dillon Francis).wav
Pre-gap length 0:00:00.69
Peak level 98.9 %
Extraction speed 3.2 X
Track quality 99.9 %
Test CRC ED28ACA9
Copy CRC ED28ACA9
Track not present in AccurateRip database
Copy OK
Track 3
Filename C:\Example-The_Evolution_Of_Man_(Deluxe_Version)-2CD-FLAC-2012\(203) Whisper (Example vs. AN21 and Max Vangeli).wav
Pre-gap length 0:00:00.48
Peak level 100.0 %
Extraction speed 4.2 X
Track quality 100.0 %
Test CRC E6579934
Copy CRC E6579934
Track not present in AccurateRip database
Copy OK
Track 4
Filename C:\Example-The_Evolution_Of_Man_(Deluxe_Version)-2CD-FLAC-2012\(204) Eutopia (Fade Away) (Example and Laidback Luke).wav
Peak level 98.9 %
Extraction speed 4.6 X
Track quality 100.0 %
Test CRC E157DE7E
Copy CRC E157DE7E
Track not present in AccurateRip database
Copy OK
Track 5
Filename C:\Example-The_Evolution_Of_Man_(Deluxe_Version)-2CD-FLAC-2012\(205) Daydreamer (Example and Flux Pavilion).wav
Pre-gap length 0:00:00.38
Peak level 100.0 %
Extraction speed 4.8 X
Track quality 100.0 %
Test CRC 50B34C63
Copy CRC 50B34C63
Track not present in AccurateRip database
Copy OK
Track 6
Filename C:\Example-The_Evolution_Of_Man_(Deluxe_Version)-2CD-FLAC-2012\(206) Say Nothing (Hardwell and Dannic Remix).wav
Pre-gap length 0:00:00.74
Peak level 100.0 %
Extraction speed 4.6 X
Track quality 99.9 %
Test CRC FD21A34F
Copy CRC FD21A34F
Track not present in AccurateRip database
Copy OK
Track 7
Filename C:\Example-The_Evolution_Of_Man_(Deluxe_Version)-2CD-FLAC-2012\(207) Close Enemies (Joker Remix).wav
Pre-gap length 0:00:00.77
Peak level 98.9 %
Extraction speed 5.4 X
Track quality 100.0 %
Test CRC 1C8819DC
Copy CRC 1C8819DC
Track not present in AccurateRip database
Copy OK
Track 8
Filename C:\Example-The_Evolution_Of_Man_(Deluxe_Version)-2CD-FLAC-2012\(208) Close Enemies (Dyro Remix).wav
Peak level 99.0 %
Extraction speed 5.7 X
Track quality 100.0 %
Test CRC ACE9B254
Copy CRC ACE9B254
Track not present in AccurateRip database
Copy OK
None of the tracks are present in the AccurateRip database
No errors occurred
End of status report
---- CUETools DB Plugin V2.1.3
[CTDB TOCID: HhxgeAO89i7Myg_ThKxjNTT.STU-] found, Submit result: already submitted
[3d7b8bb7] (1/1) Accurately ripped
==== Log checksum FA79A33552AFCA2E499869D9811CEC23E2F4CD05A0D743D8A700FCC547901ABB ====

Лог проверки качества CD 2

REM GENRE Electronic
REM DATE 2012
REM DISCID 65086208
REM COMMENT "ExactAudioCopy v1.0b3"
CATALOG 5051275060928
PERFORMER "Example"
TITLE "The Evolution Of Man (Deluxe Version)"
FILE "(201) Lets Be Fucking Stupid.wav" WAVE
TRACK 01 AUDIO
TITLE "Let's Be Fucking Stupid"
PERFORMER "Example"
ISRC GBCEN1201270
INDEX 01 00:00:00
TRACK 02 AUDIO
TITLE "Someone To Die For (Example & Dillon Francis)"
PERFORMER "Example"
ISRC GBCEN1201271
INDEX 00 04:04:03
FILE "(202) Someone To Die For (Example and Dillon Francis).wav" WAVE
INDEX 01 00:00:00
TRACK 03 AUDIO
TITLE "Whisper (Example vs. AN21 & Max Vangeli)"
PERFORMER "Example"
ISRC GBXGT1200236
INDEX 00 04:34:30
FILE "(203) Whisper (Example vs. AN21 and Max Vangeli).wav" WAVE
INDEX 01 00:00:00
FILE "(204) Eutopia (Fade Away) (Example and Laidback Luke).wav" WAVE
TRACK 04 AUDIO
TITLE "Eutopia (Fade Away) (Example & Laidback Luke)"
PERFORMER "Example"
ISRC GBCEN1201272
INDEX 01 00:00:00
TRACK 05 AUDIO
TITLE "Daydreamer (Example & Flux Pavilion)"
PERFORMER "Example"
ISRC GBAHS1200099
INDEX 00 04:31:00
FILE "(205) Daydreamer (Example and Flux Pavilion).wav" WAVE
INDEX 01 00:00:00
TRACK 06 AUDIO
TITLE "Say Nothing (Hardwell & Dannic Remix)"
PERFORMER "Example"
ISRC GBCEN1201010
INDEX 00 03:51:62
FILE "(206) Say Nothing (Hardwell and Dannic Remix).wav" WAVE
INDEX 01 00:00:00
TRACK 07 AUDIO
TITLE "Close Enemies (Joker Remix)"
PERFORMER "Example"
ISRC GBCEN1201289
INDEX 00 06:12:54
FILE "(207) Close Enemies (Joker Remix).wav" WAVE
INDEX 01 00:00:00
FILE "(208) Close Enemies (Dyro Remix).wav" WAVE
TRACK 08 AUDIO
TITLE "Close Enemies (Dyro Remix)"
PERFORMER "Example"
ISRC GBCEN1201290
INDEX 01 00:00:00

[Цитировать]



Показать сообщения:    

Текущее время: 09-Дек 14:40

Часовой пояс: UTC + 3


Вы не можете начинать темы
Вы не можете отвечать на сообщения
Вы не можете редактировать свои сообщения
Вы не можете удалять свои сообщения
Вы не можете голосовать в опросах
Вы не можете прикреплять файлы к сообщениям
Вы не можете скачивать файлы

!ВНИМАНИЕ!
Сайт не предоставляет электронные версии произведений, а занимается лишь коллекционированием и каталогизацией ссылок, присылаемых и публикуемых на форуме нашими читателями. Если вы являетесь правообладателем какого-либо представленного материала и не желаете, чтобы ссылка на него находилась в нашем каталоге, свяжитесь с нами, и мы незамедлительно удалим ее. Файлы для обмена на трекере предоставлены пользователями сайта, и администрация не несет ответственности за их содержание. Просьба не заливать файлы, защищенные авторскими правами, а также файлы нелегального содержания!