[ Сегодня идет свободное скачивание без начисления Download ]


Статистика раздачи
Нет
 
   
 
Top  
 
 
Парк резни / Carnage Park Информация о фильме
Название: Парк резни
Оригинальное название: Carnage Park
Год выхода: 2016
Жанр: ужасы, боевик, триллер, криминал
Режиссер: Мики Китинг
В ролях: Эшли Белл, Пэт Хили, Джеймс Хеберт, Майкл Виллар, Боб Бэнкрофт, Ларри Фессенден, Энди Грин, Алан Рак, Грэхэм Скиппер, Дэрби Стэнчфилд
О фильме: После неудачной попытки непродуманного ограбления в одном из пустынных городов Калифорнии, два преступника пытаются скрыться с заложником. Это вынуждает местных представителей закона пуститься в опасную погоню.

Выпущено: США / Diablo Entertainment (II)
Продолжительность: 01:20:52
Озвучивание: Любительское (одноголосое) [Хихикающий доктор]
Файл
Формат: MKV
Качество: WEB-DL 1080p
Видео: MPEG-4 AVC, 4317 kb/s, 1920x796
Аудио: Russian: AC3, 192 kb/s (2 ch) / English: AC3, 384 kb/s (6 ch)
Субтитры: English

MI

Format : Matroska
Format version : Version 2
File size : 2.82 GiB
Duration : 1h 20mn
Overall bit rate : 4 993 Kbps
Encoded date : UTC 2016-07-04 22:36:38
Writing application : mkvmerge v7.8.0 ('River Man') 32bit built on Apr 3 2015 12:11:22
Writing library : libebml v1.3.1 + libmatroska v1.4.2
Video
ID : 1
Format : AVC
Format/Info : Advanced Video Codec
Format profile : High@L4
Format settings, CABAC : Yes
Format settings, ReFrames : 5 frames
Codec ID : V_MPEG4/ISO/AVC
Duration : 1h 20mn
Bit rate : 4 317 Kbps
Width : 1 920 pixels
Height : 796 pixels
Display aspect ratio : 2.40:1
Frame rate mode : Constant
Frame rate : 23.976 fps
Color space : YUV
Chroma subsampling : 4:2:0
Bit depth : 8 bits
Scan type : Progressive
Bits/(Pixel*Frame) : 0.118
Stream size : 2.44 GiB (86%)
Language : English
Default : Yes
Forced : No
Color range : Limited
Color primaries : BT.709
Transfer characteristics : BT.709
Matrix coefficients : BT.709
Audio #1
ID : 2
Format : AC-3
Format/Info : Audio Coding 3
Mode extension : CM (complete main)
Format settings, Endianness : Big
Codec ID : A_AC3
Duration : 1h 20mn
Bit rate mode : Constant
Bit rate : 192 Kbps
Channel(s) : 2 channels
Channel positions : Front: L R
Sampling rate : 48.0 KHz
Bit depth : 16 bits
Compression mode : Lossy
Stream size : 111 MiB (4%)
Language : Russian
Default : Yes
Forced : No
Audio #2
ID : 3
Format : AC-3
Format/Info : Audio Coding 3
Mode extension : CM (complete main)
Format settings, Endianness : Big
Codec ID : A_AC3
Duration : 1h 20mn
Bit rate mode : Constant
Bit rate : 384 Kbps
Channel(s) : 6 channels
Channel positions : Front: L C R, Side: L R, LFE
Sampling rate : 48.0 KHz
Bit depth : 16 bits
Compression mode : Lossy
Stream size : 222 MiB (8%)
Language : English
Default : No
Forced : No
Text
ID : 4
Format : UTF-8
Codec ID : S_TEXT/UTF8
Codec ID/Info : UTF-8 Plain Text
Language : English
Default : No
Forced : No
Menu
00:00:00.000 : en:1
00:11:12.000 : en:2
00:23:12.000 : en:3
00:32:38.000 : en:4
00:42:41.000 : en:5
00:55:31.000 : en:6
01:09:56.000 : en:7
01:17:19.000 : en:8

Скриншоты

[Цитировать]



Показать сообщения:    

Текущее время: 09-Дек 10:49

Часовой пояс: UTC + 3


Вы не можете начинать темы
Вы не можете отвечать на сообщения
Вы не можете редактировать свои сообщения
Вы не можете удалять свои сообщения
Вы не можете голосовать в опросах
Вы не можете прикреплять файлы к сообщениям
Вы не можете скачивать файлы

!ВНИМАНИЕ!
Сайт не предоставляет электронные версии произведений, а занимается лишь коллекционированием и каталогизацией ссылок, присылаемых и публикуемых на форуме нашими читателями. Если вы являетесь правообладателем какого-либо представленного материала и не желаете, чтобы ссылка на него находилась в нашем каталоге, свяжитесь с нами, и мы незамедлительно удалим ее. Файлы для обмена на трекере предоставлены пользователями сайта, и администрация не несет ответственности за их содержание. Просьба не заливать файлы, защищенные авторскими правами, а также файлы нелегального содержания!