[ Сегодня идет свободное скачивание без начисления Download ]


Статистика раздачи
Нет
 
   
 
Top  
 
 
Шанс Эммы / Emma's Chance Информация о фильме
Название: Шанс Эммы
Оригинальное название: Emma's Chance
Год выхода: 2016
Жанр: драма, семейный, спорт
Режиссер: Анна Элизабет Джеймс
В ролях: Грир Грэммер, Джозеф Лоуренс, Мисси Пайл, Дженнифер Бини Тейлор, Кристина Робинсон, Райан МакКэртан, Лия Мари Джонсон, Эмбер Монтана, Шэнна Стронг, Норма Майклс
О фильме: В центре событий картины находится девочка по имени Эмма, занимающаяся общественной деятельностью на ферме по спасению лошадей. Здесь героиня заводит необычную дружбу с лошадью по кличке Шанс, благодаря чему впоследствии в корне пересматривает собственные взгляды на жизнь и находит в себе силы выступить против недоброжелателей ранчо.

Выпущено: США / Taylor & Dodge
Продолжительность: 01:32:37
Озвучивание: Профессиональное (многоголосое) [iTunes]
Файл
Формат: MKV
Качество: WEB-DL 720p
Видео: MPEG-4 AVC, 3787 kb/s, 1280x720
Аудио: AC3, 384 kb/s (6 ch)

MI

Format : Matroska
Format version : Version 2
File size : 2.75 GiB
Duration : 1h 32mn
Overall bit rate : 4 256 Kbps
Encoded date : UTC 2016-07-04 05:16:00
Writing application : mkvmerge v7.8.0 ('River Man') 32bit built on Apr 3 2015 12:11:22
Writing library : libebml v1.3.1 + libmatroska v1.4.2
Video
ID : 1
Format : AVC
Format/Info : Advanced Video Codec
Format profile : High@L3.1
Format settings, CABAC : No
Format settings, ReFrames : 2 frames
Codec ID : V_MPEG4/ISO/AVC
Duration : 1h 32mn
Bit rate : 3 787 Kbps
Width : 1 280 pixels
Height : 720 pixels
Display aspect ratio : 16:9
Frame rate mode : Constant
Frame rate : 23.976 fps
Color space : YUV
Chroma subsampling : 4:2:0
Bit depth : 8 bits
Scan type : Progressive
Bits/(Pixel*Frame) : 0.171
Stream size : 2.45 GiB (89%)
Language : English
Default : Yes
Forced : No
Color range : Limited
Color primaries : BT.709
Transfer characteristics : BT.709
Matrix coefficients : BT.709
Audio
ID : 2
Format : AC-3
Format/Info : Audio Coding 3
Mode extension : CM (complete main)
Format settings, Endianness : Big
Codec ID : A_AC3
Duration : 1h 32mn
Bit rate mode : Constant
Bit rate : 384 Kbps
Channel(s) : 6 channels
Channel positions : Front: L C R, Side: L R, LFE
Sampling rate : 48.0 KHz
Bit depth : 16 bits
Compression mode : Lossy
Stream size : 254 MiB (9%)
Language : Russian
Default : Yes
Forced : Yes
Menu
00:00:00.000 : en:1
00:04:51.583 : en:2
00:09:31.278 : en:3
00:14:44.507 : en:4
00:20:29.267 : en:5
00:26:37.927 : en:6
00:33:31.130 : en:7
00:38:58.832 : en:8
00:44:31.205 : en:9
00:49:38.679 : en:10
00:54:50.240 : en:11
00:59:31.354 : en:12
01:04:38.910 : en:13
01:09:41.921 : en:14
01:15:33.439 : en:15
01:23:12.271 : en:16

Скриншоты

[Цитировать]



Показать сообщения:    

Текущее время: 09-Дек 22:24

Часовой пояс: UTC + 3


Вы не можете начинать темы
Вы не можете отвечать на сообщения
Вы не можете редактировать свои сообщения
Вы не можете удалять свои сообщения
Вы не можете голосовать в опросах
Вы не можете прикреплять файлы к сообщениям
Вы не можете скачивать файлы

!ВНИМАНИЕ!
Сайт не предоставляет электронные версии произведений, а занимается лишь коллекционированием и каталогизацией ссылок, присылаемых и публикуемых на форуме нашими читателями. Если вы являетесь правообладателем какого-либо представленного материала и не желаете, чтобы ссылка на него находилась в нашем каталоге, свяжитесь с нами, и мы незамедлительно удалим ее. Файлы для обмена на трекере предоставлены пользователями сайта, и администрация не несет ответственности за их содержание. Просьба не заливать файлы, защищенные авторскими правами, а также файлы нелегального содержания!