[ Сегодня идет свободное скачивание без начисления Download ]


Статистика раздачи
Нет
 
   
 
Top  
 
 
Турист / The Tourist«Ищу попутчика для опасного путешествия...»
Год выпуска: 2010
Страна: США, Франция
Производство: GK Films, Spyglass Entertainment, Studio Canal
Жанр: боевик, триллер, мелодрама
Режиссер: Флориан Хенкель фон Доннерсмарк
В ролях: Джонни Депп, Анджелина Джоли, Пол Беттани, Тимоти Далтон, Стивен Беркофф, Руфус Сьюэлл, Кристиан Де Сика, Алессио Бони, Даниэле Печчи, Джованни Гвиделли
Перевод: Профессиональный (полное дублирование)
Субтитры: Отсутствуют
Описание: Американский турист Фрэнк приезжает в Италию, чтобы залечить душевную рану. В Венеции он знакомится с необычной женщиной по имени Элиза. Израненное сердце, похоже, готово сдаться новой возлюбленной. Однако планы Фрэнка и Элизы грубейшим образом нарушает водоворот интриг и опасностей.
[kp]428715[/kp] [imdb]tt1243957[/imdb]
Качество: DVDRip
Продолжительность: 01:39:22
Формат: AVI
Видео кодек: XviD
Аудио кодек: MPEG Audio
Видео: 640x272 (2.35:1), 25 fps, XviD MPEG-4, 850 kbps avg, 0.20 bit/pixel
Аудио: 48 kHz, MPEG Layer 3, 2 ch, 128.00 kbps avg

Media Info

Видео
Идентификатор                    : 0
Формат                           : MPEG-4 Visual
Профиль формата                  : Advanced [email protected]
Параметр BVOP формата            : 2
Параметр QPel формата            : Нет
Параметр GMC формата             : Без точки перехода
Параметр матрицы формата         : Выборочная
Идентификатор кодека             : XVID
Идентификатор кодека/Подсказка   : XviD
Продолжительность                : 1 ч. 39 м.
Битрейт                          : 851 Кбит/сек
Ширина                           : 640 пикс.
Высота                           : 272 пикс.
Соотношение сторон               : 2,35:1
Частота кадров                   : 25,000 кадр/сек
Цветовое пространство            : YUV
Подвыборка цветности             : 4:2:0
Битовая глубина                  : 8 бит
Тип развёртки                    : Прогрессивная
Метод сжатия                     : С потерями
Бит/(Пиксели*Кадры)              : 0.195
Размер потока                    : 605 Мбайт (86%)
Библиотека кодирования           : XviD 58
Аудио
Идентификатор                    : 1
Формат                           : MPEG Audio
Версия формата                   : Version 1
Профиль формата                  : Layer 3
Идентификатор кодека             : 55
Идентификатор кодека/Подсказка   : MP3
Продолжительность                : 1 ч. 39 м.
Вид битрейта                     : Постоянный
Битрейт                          : 128 Кбит/сек
Каналы                           : 2 канала
Частота                          : 48,0 КГц
Метод сжатия                     : С потерями
Размер потока                    : 91,0 Мбайт (13%)
Выравнивание                     : Соединение по промежуткам
Продолжительность промежутка     : 40  мс. (1,00 видеокадр)
Время предзагрузки промежутка    : 504 ms
Библиотека кодирования           : LAME3.98r
Настройки программы              : -m s -V 4 -q 2 -lowpass 17 -b 128
[th]http://torrentsclub.org/pictures/b00fe13b09a4b5cc53...9d34237.jpg[/th]
[th]http://torrentsclub.org/pictures/3e7db37edce967a19f...df52f4f.jpg[/th]
[th]http://torrentsclub.org/pictures/51334aa371f9384dc5...e736768.jpg[/th]
[th]http://torrentsclub.org/pictures/c13d16d8e139216a3b...42435fc.jpg[/th]


Последний раз редактировалось: Hunter (2013-01-27 14:47), всего редактировалось 2 раз(а)

[Цитировать]

Скорость нет совсем=(

[Цитировать]



Показать сообщения:    

Текущее время: 05-Дек 01:29

Часовой пояс: UTC + 3


Вы не можете начинать темы
Вы не можете отвечать на сообщения
Вы не можете редактировать свои сообщения
Вы не можете удалять свои сообщения
Вы не можете голосовать в опросах
Вы не можете прикреплять файлы к сообщениям
Вы не можете скачивать файлы

!ВНИМАНИЕ!
Сайт не предоставляет электронные версии произведений, а занимается лишь коллекционированием и каталогизацией ссылок, присылаемых и публикуемых на форуме нашими читателями. Если вы являетесь правообладателем какого-либо представленного материала и не желаете, чтобы ссылка на него находилась в нашем каталоге, свяжитесь с нами, и мы незамедлительно удалим ее. Файлы для обмена на трекере предоставлены пользователями сайта, и администрация не несет ответственности за их содержание. Просьба не заливать файлы, защищенные авторскими правами, а также файлы нелегального содержания!