[ Сегодня идет свободное скачивание без начисления Download ]


Статистика раздачи
Нет
 
   
 
Top  
 
 
-Кунг-фу Панда 2 / Kung Fu Panda 2«Пандамания продолжается»- » Год выпуска: 2011
» Страна: США
» Производство: DreamWorks Animation
» Жанр: мультфильм, боевик, комедия, приключения, семейный-» Режиссер: Дженнифер Ю
» В ролях: Анджелина Джоли, Гари Олдман, Сет Роген, Жан-Клод Ван Дамм, Джек Блэк, Джеки Чан, Дастин Хоффман, Дэвид Кросс, Люси Лью, Мишель Йео-» Перевод: Профессиональный (полное дублирование)
» Субтитры: Отсутствуют-» Описание: Панда По наконец-то исполнит свою мечту, станет Воином Дракона и со своими друзьями и мастерами кунг-фу — Неистовой Пятеркой — защитит Великую Долину от страшного злодея и его легиона…- -» Качество: BDRip
» Продолжительность: 01:27:12-» Формат: AVI
» Видео кодек: XviD
» Аудио кодек: MP3
» Видео: 640x272 (2.35:1), 23.976 fps, XviD build 65 ~1014 kbps avg, 0.24 bit/pixel
» Аудио: 48 kHz, MPEG Layer 3, 2 ch, ~128.00 kbps avg-» Премьера (мир): 22 мая 2011
» Премьера (РФ): 26 мая 2011, «Централ Партнершип»-

Media Info

Общее
Полное имя                               : D:\Kung-Fu.Panda.2.2011.BDRip.avi
Формат                                   : AVI
Формат/Информация                        : Audio Video Interleave
Размер файла                             : 745 Мбайт
Продолжительность                        : 1 ч. 30 м.
Общий поток                              : 1152 Кбит/сек
Название фильма                          : Kung-Fu.Panda.2.2011.BDRip.All.Films
Режиссёр                                 : ZobaNupa
Программа кодирования                    : VirtualDubMod 1.5.10.3 | www.virtualdub-fr.org || (build 2550/release)
Видео
Идентификатор                            : 0
Формат                                   : MPEG-4 Visual
Профиль формата                          : Advanced Simple@L5
Параметр BVOP формата                    : 2
Параметр QPel формата                    : Нет
Параметр GMC формата                     : Без точки перехода
Параметр матрицы формата                 : Выборочная
Идентификатор кодека                     : XVID
Идентификатор кодека/Подсказка           : XviD
Продолжительность                        : 1 ч. 30 м.
Битрейт                                  : 1015 Кбит/сек
Ширина                                   : 640 пикселей
Высота                                   : 272 пикселя
Соотношение сторон                       : 2,35:1
Частота кадров                           : 23,976 кадра/сек
Цветовое пространство                    : YUV
Субдискретизация насыщенности            : 4:2:0
Битовая глубина                          : 8 бит
Тип развёртки                            : Прогрессивная
Метод сжатия                             : С потерями
Бит/(Пиксели*Кадры)                      : 0.243
Размер потока                            : 656 Мбайт (88%)
Библиотека кодирования                   : XviD 65
Аудио
Идентификатор                            : 1
Формат                                   : MPEG Audio
Версия формата                           : Version 1
Профиль формата                          : Layer 3
Идентификатор кодека                     : 55
Идентификатор кодека/Подсказка           : MP3
Продолжительность                        : 1 ч. 30 м.
Вид битрейта                             : Постоянный
Битрейт                                  : 128 Кбит/сек
Каналы                                   : 2 канала
Частота                                  : 48,0 КГц
Метод сжатия                             : С потерями
Размер потока                            : 82,7 Мбайт (11%)
Выравнивание                             : Соединение по промежуткам
Продолжительность промежутка             : 42  мс. (1,00 видеокадр)
Время предзагрузки промежутка            : 504  мс.
Библиотека кодирования                   : LAME3.99
Настройки программы                      : -m s -V 4 -q 2 -lowpass 17 -b 128

Награды

--[th]http://torrentsclub.org/pictures/1f93794669151ddcdc...9825be3.png[/th]
[th]http://torrentsclub.org/pictures/dc192a465950f35ca0...e732382.png[/th]
[th]http://torrentsclub.org/pictures/8ce34c8334b68f73f4...6663ba4.png[/th]
--

[Цитировать]



Показать сообщения:    

Текущее время: 03-Дек 01:19

Часовой пояс: UTC + 3


Вы не можете начинать темы
Вы не можете отвечать на сообщения
Вы не можете редактировать свои сообщения
Вы не можете удалять свои сообщения
Вы не можете голосовать в опросах
Вы не можете прикреплять файлы к сообщениям
Вы не можете скачивать файлы

!ВНИМАНИЕ!
Сайт не предоставляет электронные версии произведений, а занимается лишь коллекционированием и каталогизацией ссылок, присылаемых и публикуемых на форуме нашими читателями. Если вы являетесь правообладателем какого-либо представленного материала и не желаете, чтобы ссылка на него находилась в нашем каталоге, свяжитесь с нами, и мы незамедлительно удалим ее. Файлы для обмена на трекере предоставлены пользователями сайта, и администрация не несет ответственности за их содержание. Просьба не заливать файлы, защищенные авторскими правами, а также файлы нелегального содержания!