[ Сегодня идет свободное скачивание без начисления Download ]


Статистика раздачи
Нет
 
   
 
Top  
 
 
Резня в парке аттракционов / The Funhouse Massacre (2015) HDRip - Производство: США
Жанр: Ужасы, Комедия
Режиссер: Энди Палмер
Актеры: Роберт Инглунд, Джер Бернс, Скотти Томпсон, Мэтт Энджел, Чести Бальестерос, Клинт Ховард, Кортни Гейнс, Эрик Чаварриа, Марс Крейн, Кэндис Де Виссер
Описание:
Специально для Хэллоуина парк аттракционов сделали стилизованным для такого праздника, оборудовав всеми ужасными атрибутами. Народ с удовольствием посещает аттракционы и не догадывается, что совсем скоро их веселью придет конец. Ведь из специальной тюрьмы для психопатов удалось сбежать шестерым самым жестоким и неадекватным преступникам. Вскоре они приходят в парк развлечений и устраивают там настоящую резню. Сможет ли хоть кто-то выжить в этом безумии хаоса и крови?

Рейтинг MPAA: R (лицам до 17 лет обязательно присутствие взрослого)
Продолжительность: 01:30:51
Качество видео: HDRip СЭМПЛ
Перевод: Одноголосый закадровый, любительский (Хихидок)
Видео: Xvid, 720x304, ~1588 kbps
Аудио 1 : AC3, 2 ch, 192 kbps - Русский
Аудио 2 : AC3, 6 ch, 448 kbps - Английский

Mediainfo:

Общее
Полное имя                               : J:\Reznja.V.Parke.Atrakcionov.HDRip\Reznja.V.Parke.Atrakcionov.avi
Формат                                   : AVI
Формат/Информация                        : Audio Video Interleave
Профиль формата                          : OpenDML
Размер файла                             : 1,43 Гбайт
Продолжительность                        : 1 ч. 30 м.
Общий поток                              : 2246 Кбит/сек
Программа кодирования                    : XviD4PSP 6.0 / 54.29.105
Видео
Идентификатор                            : 0
Формат                                   : xvid
Идентификатор кодека                     : xvid
Продолжительность                        : 1 ч. 30 м.
Битрейт                                  : 1588 Кбит/сек
Ширина                                   : 720 пикселей
Высота                                   : 304 пикселя
Соотношение сторон                       : 2,40:1
Частота кадров                           : 23,976 кадра/сек
Тип развёртки                            : Прогрессивная
Бит/(Пиксели*Кадры)                      : 0.303
Размер потока                            : 1,01 Гбайт (71%)
Аудио #1
Идентификатор                            : 1
Формат                                   : AC-3
Формат/Информация                        : Audio Coding 3
Расширение режима                        : CM (complete main)
Параметр Endianness формата              : Big
Идентификатор кодека                     : 2000
Продолжительность                        : 1 ч. 30 м.
Вид битрейта                             : Постоянный
Битрейт                                  : 192 Кбит/сек
Каналы                                   : 2 канала
Расположение каналов                     : Front: L R
Частота                                  : 44,1 КГц
Частота кадров                           : 28,711 кадров/сек (1536 spf)
Битовая глубина                          : 16 бит
Метод сжатия                             : С потерями
Размер потока                            : 125 Мбайт (9%)
Выравнивание                             : Соединение по промежуткам
Продолжительность промежутка             : 35  мс. (0,84 видеокадр)
Аудио #2
Идентификатор                            : 2
Формат                                   : AC-3
Формат/Информация                        : Audio Coding 3
Расширение режима                        : CM (complete main)
Параметр Endianness формата              : Big
Идентификатор кодека                     : 2000
Продолжительность                        : 1 ч. 30 м.
Вид битрейта                             : Постоянный
Битрейт                                  : 448 Кбит/сек
Каналы                                   : 6 каналов
Расположение каналов                     : Front: L C R, Side: L R, LFE
Частота                                  : 48,0 КГц
Частота кадров                           : 31,250 кадров/сек (1536 spf)
Битовая глубина                          : 16 бит
Метод сжатия                             : С потерями
Размер потока                            : 291 Мбайт (20%)
Выравнивание                             : Соединение по промежуткам
Продолжительность промежутка             : 32  мс. (0,77 видеокадр)
Скриншоты:

[Цитировать]



Показать сообщения:    

Текущее время: 11-Дек 13:01

Часовой пояс: UTC + 3


Вы не можете начинать темы
Вы не можете отвечать на сообщения
Вы не можете редактировать свои сообщения
Вы не можете удалять свои сообщения
Вы не можете голосовать в опросах
Вы не можете прикреплять файлы к сообщениям
Вы не можете скачивать файлы

!ВНИМАНИЕ!
Сайт не предоставляет электронные версии произведений, а занимается лишь коллекционированием и каталогизацией ссылок, присылаемых и публикуемых на форуме нашими читателями. Если вы являетесь правообладателем какого-либо представленного материала и не желаете, чтобы ссылка на него находилась в нашем каталоге, свяжитесь с нами, и мы незамедлительно удалим ее. Файлы для обмена на трекере предоставлены пользователями сайта, и администрация не несет ответственности за их содержание. Просьба не заливать файлы, защищенные авторскими правами, а также файлы нелегального содержания!