[ Сегодня идет свободное скачивание без начисления Download ]


Статистика раздачи
Нет
 
   
 
Top  
 
 
Зелёная комната / Green Room (2015) BDRip 1080p- Производство: США, Broad Green Pictures, Film Science
Жанр: Триллер, Криминал
Режиссер: Джереми Солнье
Актеры: Антон Ельчин, Джо Коул, Алиа Шокат, Каллум Тернер, Дэвид В. Томпсон, Марк Веббер, Мэйкон Блэр, Эрик Эдельштейн, Майкл Дрэйпер
Описание:
Панк-группа из четырёх человек ездит по Америке на небольшом фургончике. Дают концерты где придётся и считают копейки. И тут выпадает возможность подзаработать на концерте в общине скинхедов чуть больше, чем обычно. Конечно же они соглашаются. Всё, вроде бы проходит неплохо, но после концерта они становятся свидетелями убийства в гримёрке с зелёными стенами.

Рейтинг MPAA: R (лицам до 17 лет обязательно присутствие взрослого)
Релиз от: HDReactor
Продолжительность: 01:35:01
Качество видео: BDRip СЭМПЛ
Перевод: Авторский (Есарев)
Язык субтитров: Английские
Вид субтитров: Вшитые отключаемые
Видео: AVC/H.264, 1920х800, ~9326 Кbps
Аудио #1: Русский, AC3, 6 ch, 448 Кbps - ненормативный
Аудио #2: Русский, AC3, 6 ch, 448 Кbps - цензурный
Аудио #3: Английский, AC3, 6 ch, 448 Кbps - оригинал

Mediainfo:

Формат : Matroska
Версия формата : Version 2
Размер файла : 7,08 Гбайт
Продолжительность : 1 ч. 35 м.
Общий поток : 10,7 Мбит/сек
Название фильма : ~V ad~
Дата кодирования : UTC 2016-07-07 13:50:30
Программа кодирования : mkvmerge v6.5.0 ('Isn't she lovely') built on Oct 20 2013 12:50:05
Библиотека кодирования : libebml v1.3.0 + libmatroska v1.4.1
Обложка : Yes
Attachments : cover.jpg / Green Room.jpg
Видео
Идентификатор : 1
Формат : AVC
Формат/Информация : Advanced Video Codec
Профиль формата : [url=mailto:[email protected]][email protected][/url]
Параметр CABAC формата : Да
Параметр ReFrames формата : 5 кадров
Идентификатор кодека : V_MPEG4/ISO/AVC
Продолжительность : 1 ч. 35 м.
Битрейт : 9326 Кбит/сек
Ширина : 1920 пикселей
Высота : 800 пикселей
Соотношение сторон : 2,40:1
Режим частоты кадров : Постоянный
Частота кадров : 23,976 (24000/1001) кадра/сек
Цветовое пространство : YUV
Субдискретизация насыщенности : 4:2:0
Битовая глубина : 8 бит
Тип развёртки : Прогрессивная
Бит/(Пиксели*Кадры) : 0.253
Размер потока : 6,05 Гбайт (85%)
Заголовок : ~V~
Библиотека кодирования : x264 core 148 r2705+54 9f484c1 t_mod_Custom [[email protected] X86_64]
Настройки программы : cabac=1 / ref=5 / deblock=1:-3:-3 / analyse=0x3:0x133 / me=umh / subme=11 / psy=1 / fade_compensate=0.00 / psy_rd=1.10:0.00 / mixed_ref=1 / me_range=32 / chroma_me=1 / trellis=2 / 8x8dct=1 / cqm=0 / deadzone=21,11 / fast_pskip=0 / chroma_qp_offset=-2 / threads=12 / lookahead_threads=1 / sliced_threads=0 / nr=0 / decimate=0 / interlaced=0 / bluray_compat=0 / constrained_intra=0 / fgo=0 / bframes=11 / b_pyramid=2 / b_adapt=2 / b_bias=0 / direct=3 / weightb=1 / open_gop=0 / weightp=2 / keyint=240 / keyint_min=23 / scenecut=40 / intra_refresh=0 / rc=2pass / mbtree=0 / bitrate=9326 / ratetol=1.0 / qcomp=0.60 / qpmin=0:0:0 / qpmax=69:69:69 / qpstep=4 / cplxblur=20.0 / qblur=0.5 / ip_ratio=1.40 / pb_ratio=1.30 / aq=3:1.10 / aq-sensitivity=11.00 / aq-factor=1.00:1.00:1.00 / aq2=1:0.70 / aq2-sensitivity=10.00 / aq2-factor=1.00:1.00:1.00 / aq3=1:[0.60:0.60]:[0.60:0.60]:[0.60:0.60]:[0.60:0.60] / aq3-sensitivity=8.00 / aq3-factor=[1.00:1.00]:[1.00:1.00]:[1.00:1.00] / aq3-boundary=192:64:24
Язык : English
Default : Да
Forced : Нет
Аудио #1
Идентификатор : 2
Формат : AC-3
Формат/Информация : Audio Coding 3
Расширение режима : CM (complete main)
Параметр Endianness формата : Big
Идентификатор кодека : A_AC3
Продолжительность : 1 ч. 35 м.
Вид битрейта : Постоянный
Битрейт : 448 Кбит/сек
Каналы : 6 каналов
Расположение каналов : Front: L C R, Side: L R, LFE
Частота : 48,0 КГц
Частота кадров : 31,250 кадров/сек (1536 spf)
Метод сжатия : С потерями
Размер потока : 305 Мбайт (4%)
Заголовок : AVO Д.Есарев (без цензуры)
Язык : Russian
Default : Да
Forced : Нет
Аудио #2
Идентификатор : 3
Формат : AC-3
Формат/Информация : Audio Coding 3
Расширение режима : CM (complete main)
Параметр Endianness формата : Big
Идентификатор кодека : A_AC3
Продолжительность : 1 ч. 35 м.
Вид битрейта : Постоянный
Битрейт : 448 Кбит/сек
Каналы : 6 каналов
Расположение каналов : Front: L C R, Side: L R, LFE
Частота : 48,0 КГц
Частота кадров : 31,250 кадров/сек (1536 spf)
Метод сжатия : С потерями
Размер потока : 305 Мбайт (4%)
Заголовок : AVO Д.Есарев (с цензурой)
Язык : Russian
Default : Нет
Forced : Нет
Аудио #3
Идентификатор : 4
Формат : AC-3
Формат/Информация : Audio Coding 3
Расширение режима : CM (complete main)
Параметр Endianness формата : Big
Идентификатор кодека : A_AC3
Продолжительность : 1 ч. 35 м.
Вид битрейта : Постоянный
Битрейт : 448 Кбит/сек
Каналы : 6 каналов
Расположение каналов : Front: L C R, Side: L R, LFE
Частота : 48,0 КГц
Частота кадров : 31,250 кадров/сек (1536 spf)
Метод сжатия : С потерями
Размер потока : 305 Мбайт (4%)
Язык : English
Default : Нет
Forced : Нет
Текст
Идентификатор : 5
Формат : UTF-8
Идентификатор кодека : S_TEXT/UTF8
Идентификатор кодека/Информация : UTF-8 Plain Text
Заголовок : SDH
Язык : English
Default : Нет
Forced : Нет
Меню
00:00:00.000 : en:Chapter 01
00:07:44.213 : en:Chapter 02
00:13:51.247 : en:Chapter 03
00:18:01.163 : en:Chapter 04
00:24:30.051 : en:Chapter 05
00:32:01.961 : en:Chapter 06
00:37:28.162 : en:Chapter 07
00:45:49.788 : en:Chapter 08
00:49:17.162 : en:Chapter 09
00:55:19.524 : en:Chapter 10
01:00:19.866 : en:Chapter 11
01:03:34.894 : en:Chapter 12
01:10:05.201 : en:Chapter 13
01:13:34.701 : en:Chapter 14
01:17:52.209 : en:Chapter 15
01:25:07.560 : en:Chapter 16
Скриншоты:

[Цитировать]



Показать сообщения:    

Текущее время: 04-Дек 21:26

Часовой пояс: UTC + 3


Вы не можете начинать темы
Вы не можете отвечать на сообщения
Вы не можете редактировать свои сообщения
Вы не можете удалять свои сообщения
Вы не можете голосовать в опросах
Вы не можете прикреплять файлы к сообщениям
Вы не можете скачивать файлы

!ВНИМАНИЕ!
Сайт не предоставляет электронные версии произведений, а занимается лишь коллекционированием и каталогизацией ссылок, присылаемых и публикуемых на форуме нашими читателями. Если вы являетесь правообладателем какого-либо представленного материала и не желаете, чтобы ссылка на него находилась в нашем каталоге, свяжитесь с нами, и мы незамедлительно удалим ее. Файлы для обмена на трекере предоставлены пользователями сайта, и администрация не несет ответственности за их содержание. Просьба не заливать файлы, защищенные авторскими правами, а также файлы нелегального содержания!