[ Сегодня идет свободное скачивание без начисления Download ]


Статистика раздачи
Скачал: [ 1 ]
 
   
 
Top  
 
 
Зачётный препод 2 / Fack ju Göhte 2 (2015) BDRip 720p Информация о фильме
Название: Зачётный препод 2
Оригинальное название: Fack ju Göhte 2
Страна: Германия
Студия: Constantin Film International, Constantin Film Produktion GmbH, Red Balloon Films
Жанр: Комедия
Год выпуска: 2015
Продолжительность: 01:55:24
Перевод: Профессиональный (дублированный) iTunes
Cубтитры: Rus, Eng, Ger
Оригинальная аудиодорожка: немецкий
Режиссер: Бора Дагтекин / Bora Dagtekin
В ролях: Элиас ЭмБарек, Йелла Хаазе, Каролине Херфурт, Катя Риман, Макс фон Гробен, Гизем Эмре, Арам Арами, Анна-Лена Кленке, Лукас Райбер, Руна Грайнер
Описание: Бывший грабитель, а ныне крутой препод в школе Гёте, Зеки Мюллер, обрел популярность среди учеников благодаря нетрадиционным методам преподавания. Не успел он заскучать, заполняя классные журналы и проверяя тетради, как его вовлекли в «войну школ»: для того, чтобы получить статус престижного учебного заведения, необходимо съездить с коррекционным классом старшеклассников в Таиланд, чтобы установить дружеские отношения с местной школой. Вы, наверное, догадались, кому «повезло» стать сопровождающим! Пару Зеки составит очаровательная коллега Лиси. Кто кому задаст жару в этой по-настоящему «горячей» поездке, полной соблазнов — большой вопрос…

Тип релиза: BDRip 720p
Контейнер: MKV
Видео: MPEG-4 AVC, 5437 Кбит/с, 1280x534, 24,000 fps
Аудио: Rus, AC3, 384 kb/s (6 ch), 48 kHz
Аудио 2: Ger, DTS, 1510 kb/s (6 ch), 48 kHz
Формат субтитров: softsub (SRT)

MediaInfo

Format : Matroska
Format version : Version 4 / Version 2
File size : 6.03 GiB
Duration : 1h 55mn
Overall bit rate : 7 479 Kbps
Movie name : Зачётный препод 2. (Tonik)
Encoded date : UTC 2016-07-07 17:50:25
Writing application : mkvmerge v7.1.0 ('Good Love') 64bit built on Jul 27 2014 13:06:55
Writing library : libebml v1.3.0 + libmatroska v1.4.1
_STATISTICS_WRITING_APP : mkvmerge v7.1.0 ('Good Love') 64bit built on Jul 27 2014 13:06:55
_STATISTICS_WRITING_DATE_UTC : 2016-07-07 17:50:25
_STATISTICS_TAGS : BPS DURATION NUMBER_OF_FRAMES NUMBER_OF_BYTES
DURATION : 01:55:21.248000000
NUMBER_OF_FRAMES : 216289
NUMBER_OF_BYTES : 332219904
Video
ID : 1
Format : AVC
Format/Info : Advanced Video Codec
Format profile : High@L4.0
Format settings, CABAC : Yes
Format settings, ReFrames : 12 frames
Codec ID : V_MPEG4/ISO/AVC
Duration : 1h 55mn
Bit rate : 5 437 Kbps
Width : 1 280 pixels
Height : 534 pixels
Display aspect ratio : 2.40:1
Frame rate mode : Constant
Frame rate : 24.000 fps
Color space : YUV
Chroma subsampling : 4:2:0
Bit depth : 8 bits
Scan type : Progressive
Bits/(Pixel*Frame) : 0.331
Stream size : 4.38 GiB (73%)
Writing library : x264 core 142 r2479 dd79a61
Encoding settings : cabac=1 / ref=12 / deblock=1:-3:-3 / analyse=0x3:0x133 / me=umh / subme=11 / psy=1 / psy_rd=1.00:0.00 / mixed_ref=1 / me_range=32 / chroma_me=1 / trellis=2 / 8x8dct=1 / cqm=0 / deadzone=21,11 / fast_pskip=0 / chroma_qp_offset=-2 / threads=6 / lookahead_threads=1 / sliced_threads=0 / nr=0 / decimate=1 / interlaced=0 / bluray_compat=0 / constrained_intra=0 / bframes=7 / b_pyramid=2 / b_adapt=2 / b_bias=0 / direct=3 / weightb=1 / open_gop=0 / weightp=2 / keyint=240 / keyint_min=24 / scenecut=40 / intra_refresh=0 / rc=crf / mbtree=0 / crf=16.3 / qcomp=0.75 / qpmin=0 / qpmax=69 / qpstep=4 / ip_ratio=1.40 / pb_ratio=1.30 / aq=2:1.00
Language : German
Default : Yes
Forced : No
Color primaries : BT.709
Transfer characteristics : BT.709
Matrix coefficients : BT.709
_STATISTICS_WRITING_APP : mkvmerge v7.1.0 ('Good Love') 64bit built on Jul 27 2014 13:06:55
_STATISTICS_WRITING_DATE_UTC : 2016-07-07 17:50:25
_STATISTICS_TAGS : BPS DURATION NUMBER_OF_FRAMES NUMBER_OF_BYTES
DURATION : 01:55:23.959000000
NUMBER_OF_FRAMES : 166175
NUMBER_OF_BYTES : 4832019369
Audio #1
ID : 2
Format : AC-3
Format/Info : Audio Coding 3
Mode extension : CM (complete main)
Format settings, Endianness : Big
Codec ID : A_AC3
Duration : 1h 55mn
Bit rate mode : Constant
Bit rate : 384 Kbps
Channel(s) : 6 channels
Channel positions : Front: L C R, Side: L R, LFE
Sampling rate : 48.0 KHz
Bit depth : 16 bits
Compression mode : Lossy
Delay relative to video : -83ms
Stream size : 317 MiB (5%)
Title : iTunes
Language : Russian
Default : Yes
Forced : No
Audio #2
ID : 3
Format : DTS
Format/Info : Digital Theater Systems
Mode : 16
Format settings, Endianness : Big
Codec ID : A_DTS
Duration : 1h 55mn
Bit rate mode : Constant
Bit rate : 1 509 Kbps
Channel(s) : 6 channels
Channel positions : Front: L C R, Side: L R, LFE
Sampling rate : 48.0 KHz
Bit depth : 24 bits
Compression mode : Lossy
Delay relative to video : -83ms
Stream size : 1.22 GiB (20%)
Language : German
Default : No
Forced : No
Text #1
ID : 4
Format : UTF-8
Codec ID : S_TEXT/UTF8
Codec ID/Info : UTF-8 Plain Text
Language : Russian
Default : No
Forced : No
Text #2
ID : 5
Format : UTF-8
Codec ID : S_TEXT/UTF8
Codec ID/Info : UTF-8 Plain Text
Language : English
Default : No
Forced : No
Text #3
ID : 6
Format : UTF-8
Codec ID : S_TEXT/UTF8
Codec ID/Info : UTF-8 Plain Text
Title : Forced
Language : German
Default : No
Forced : No
Text #4
ID : 7
Format : UTF-8
Codec ID : S_TEXT/UTF8
Codec ID/Info : UTF-8 Plain Text
Language : German
Default : No
Forced : No
Menu
00:00:00.000 : :Chapter 1
00:06:46.458 : :Chapter 2
00:13:50.791 : :Chapter 3
00:18:46.458 : :Chapter 4
00:26:16.708 : :Chapter 5
00:32:44.708 : :Chapter 6
00:37:24.166 : :Chapter 7
00:42:59.416 : :Chapter 8
00:51:12.333 : :Chapter 9
00:57:03.666 : :Chapter 10
01:05:25.333 : :Chapter 11
01:11:51.208 : :Chapter 12
01:17:50.166 : :Chapter 13
01:25:56.416 : :Chapter 14
01:34:00.416 : :Chapter 15
01:39:58.666 : :Chapter 16
01:47:26.666 : :Chapter 17

Скриншоты

[Цитировать]



Показать сообщения:    

Текущее время: 11-Дек 13:03

Часовой пояс: UTC + 3


Вы не можете начинать темы
Вы не можете отвечать на сообщения
Вы не можете редактировать свои сообщения
Вы не можете удалять свои сообщения
Вы не можете голосовать в опросах
Вы не можете прикреплять файлы к сообщениям
Вы не можете скачивать файлы

!ВНИМАНИЕ!
Сайт не предоставляет электронные версии произведений, а занимается лишь коллекционированием и каталогизацией ссылок, присылаемых и публикуемых на форуме нашими читателями. Если вы являетесь правообладателем какого-либо представленного материала и не желаете, чтобы ссылка на него находилась в нашем каталоге, свяжитесь с нами, и мы незамедлительно удалим ее. Файлы для обмена на трекере предоставлены пользователями сайта, и администрация не несет ответственности за их содержание. Просьба не заливать файлы, защищенные авторскими правами, а также файлы нелегального содержания!