[ Сегодня идет свободное скачивание без начисления Download ]


Статистика раздачи
Нет
 
   
 
Top  
 
 
[sh]Дискография[/sh]Исполнитель: Игорёк
Страна: Россия
Жанр: Pop
Год: 2001-2008
Формат: FLAC (image + .cue)
Битрейт аудио: lossless
Тип альбома: Студийный
Продолжительность: 06:25:14
Коротко об исполнителе: Настоящее имя - Игорь Сорокин. В Москву он приехал из Новосибирска, где прежде работал ди-джеем на молодежных дискотеках. Его песня "Подождем твою маму, подождем твою мать!" сразу же стала суперхитом.
Игорек "одинок и пока не влюблен". Даже подруги нет. Всему виной достаточно плотный график концертных выступлений, всевозможных съемок и записей. Вдобавок ко всему певец недавно открыл свой "лейбл" "СNN-рекордс" и продюсирует два музыкальных проекта. У него просто не хватает времени "беззаботно пойти куда-нибудь с девчонками и оторваться по полной программе, как прежде". Но он уверен, что "любовь нечаянно нагрянет" и к нему.
Большинство своих песен Игорек берет из жизни. Каждая была сочинена под впечатлением реальной ситуации, пережитой им самим. Несколько песен написаны от избытка чувств, вызванных разлукой с девчонкой: "Мы сильно любили друг друга, но она хотела, чтобы я был все время рядом с ней, возле ее юбки, пусть даже работая слесарем на заводе, пусть дворником, кем угодно, но не певцом. Она не понимала, что мне нужно двигаться вперед, расти творчески".
По поводу песни "Подождем..." Игорек рассказывает следующее: "Последние два года жизни в Новосибирске я страшно пил. Было несколько моментов, что чуть в петлю не залез. В Москву приехал с червонцем в кармане. Меня приютил армейский друг. К тому времени я уже записал альбом на английском языке, но в столице понял, что с английским ловить нечего. Песня "Подождем..." тоже поначалу никому не приглянулась. Все говорили, что такое не "покатит". Но уже спустя некоторое время весь юг "зависал" под эту вещицу..."

Треклист:

Игорёк - Употреблять охлажденным - 2008

Употреблять охлажденным Треклист:
01. Эти слёзы твои ...
02. Мой лучший корефан
03. Летом
04. Бросай бухать
05. Моей любимой...
06. Какая попа
07. Красивая девченка
08. Как же ты могла !?
09. Девочка Марина
10. Автосервис
11. Подождем (remix)
12. Красивая девченка (remix)
13. Хей,ребята (remix)
14. Караоке (Бросай бухать)
15. Караоке (Эти слезы твои...)

Back

Лог

Exact Audio Copy V0.99 prebeta 4 from 23. January 2008
Отчёт EAC об извлечении, выполненном 19. сентября 2008, 22:11
Игорёк / Употреблять охлажденным...
Дисковод: ASUS DRW-1814BL Adapter: 3 ID: 0
Режим чтения : Достоверность
Использование точного потока : Да
Отключение кэша аудио : Да
Использование указателей C2 : Нет
Коррекция смещения при чтении : 6
Способность читать области Lead-in и Lead-out : Нет
Заполнение пропущенных сэмплов тишиной : Да
Удаление блоков с тишиной в начале и конце : Нет
При вычислениях CRC использовались нулевые сэмплы : Нет
Интерфейс : Встроенный Win32-интерфейс для Win NT/2000
Выходной формат : Внутренние WAV-операции
Формат сэмплов : 44.100 Гц; 16 бит; стерео
TOC извлечённого CD
Трек | Старт | Длительность | Начальный сектор | Конечный сектор
---------------------------------------------------------------------
1 | 0:00.00 | 3:07.16 | 0 | 14040
2 | 3:07.16 | 2:37.17 | 14041 | 25832
3 | 5:44.33 | 2:24.54 | 25833 | 36686
4 | 8:09.12 | 2:56.04 | 36687 | 49890
5 | 11:05.16 | 4:00.21 | 49891 | 67911
6 | 15:05.37 | 3:48.10 | 67912 | 85021
7 | 18:53.47 | 2:57.72 | 85022 | 98368
8 | 21:51.44 | 3:29.68 | 98369 | 114111
9 | 25:21.37 | 3:53.14 | 114112 | 131600
10 | 29:14.51 | 3:16.14 | 131601 | 146314
11 | 32:30.65 | 3:30.27 | 146315 | 162091
12 | 36:01.17 | 4:38.46 | 162092 | 182987
13 | 40:39.63 | 3:12.18 | 182988 | 197405
14 | 43:52.06 | 2:55.47 | 197406 | 210577
15 | 46:47.53 | 3:05.10 | 210578 | 224462
Характеристики диапазона извлечения и сообщения об ошибках
Выбранный диапазон
Имя файла E:\НА-А-А-АШЕ!!!!!!!\Игорёк\Игорёк - Употреблять охлажденным\Игорёк - Употреблять охлажденным....wav
Пиковый уровень 99.6 %
Качество диапазона 100.0 %
CRC теста 5A057879
CRC копии 5A057879
Копирование... OK
Ошибок не произошло
AccurateRip: сводка
Трек 1 нет в базе данных
Трек 2 нет в базе данных
Трек 3 нет в базе данных
Трек 4 нет в базе данных
Трек 5 нет в базе данных
Трек 6 нет в базе данных
Трек 7 нет в базе данных
Трек 8 нет в базе данных
Трек 9 нет в базе данных
Трек 10 нет в базе данных
Трек 11 нет в базе данных
Трек 12 нет в базе данных
Трек 13 нет в базе данных
Трек 14 нет в базе данных
Трек 15 нет в базе данных
Ни одного трека нет в базе AccurateRip
Конец отчёта

Игорёк - Надо! - 2006

Надо! Треклист:

1. Гуд Бай
2. Надо!
3. Супермаркет
4. Она
5. Папа-злой
6. Под дождём
7. Иду-ду-ду
8. Женюсь
9. Я еще вернусь
10. Я так тебя люблю
11. И мы увидем
12. Люблю
13. Э.М.И. (Энди & М.С.Колбаса & Игорёк) Динамо

Back

Лог

Exact Audio Copy V0.99 prebeta 4 from 23. January 2008
Отчёт EAC об извлечении, выполненном 26. сентября 2008, 23:29
Игорек / Надо !
Дисковод: ASUS DRW-1814BL Adapter: 3 ID: 0
Режим чтения : Достоверность
Использование точного потока : Да
Отключение кэша аудио : Да
Использование указателей C2 : Нет
Коррекция смещения при чтении : 6
Способность читать области Lead-in и Lead-out : Нет
Заполнение пропущенных сэмплов тишиной : Да
Удаление блоков с тишиной в начале и конце : Нет
При вычислениях CRC использовались нулевые сэмплы : Нет
Интерфейс : Встроенный Win32-интерфейс для Win NT/2000
Выходной формат : Внутренние WAV-операции
Формат сэмплов : 44.100 Гц; 16 бит; стерео
TOC извлечённого CD
Трек | Старт | Длительность | Начальный сектор | Конечный сектор
---------------------------------------------------------------------
1 | 0:00.00 | 2:53.13 | 0 | 12987
2 | 2:53.13 | 3:34.33 | 12988 | 29070
3 | 6:27.46 | 2:57.47 | 29071 | 42392
4 | 9:25.18 | 3:35.05 | 42393 | 58522
5 | 13:00.23 | 3:35.73 | 58523 | 74720
6 | 16:36.21 | 2:34.15 | 74721 | 86285
7 | 19:10.36 | 3:41.20 | 86286 | 102880
8 | 22:51.56 | 2:57.70 | 102881 | 116225
9 | 25:49.51 | 3:15.32 | 116226 | 130882
10 | 29:05.08 | 4:19.55 | 130883 | 150362
11 | 33:24.63 | 3:05.33 | 150363 | 164270
12 | 36:30.21 | 3:28.01 | 164271 | 179871
13 | 39:58.22 | 3:21.47 | 179872 | 194993
Характеристики диапазона извлечения и сообщения об ошибках
Выбранный диапазон
Имя файла E:\НА-А-А-АШЕ!!!!!!!\Игорёк\Игорёк - Надо!\Игорек - Надо !.wav
Пиковый уровень 99.6 %
Качество диапазона 100.0 %
CRC теста C5D3F343
CRC копии C5D3F343
Копирование... OK
Ошибок не произошло
AccurateRip: сводка
Трек 1 нет в базе данных
Трек 2 нет в базе данных
Трек 3 нет в базе данных
Трек 4 нет в базе данных
Трек 5 нет в базе данных
Трек 6 нет в базе данных
Трек 7 нет в базе данных
Трек 8 нет в базе данных
Трек 9 нет в базе данных
Трек 10 нет в базе данных
Трек 11 нет в базе данных
Трек 12 нет в базе данных
Трек 13 нет в базе данных
Ни одного трека нет в базе AccurateRip
Конец отчёта

Игорёк - Чисто без грязи... - 2004

Чисто без грязи... Треклист:

01. Почему так?
02. А я помечтаю
03. Красивая девченка
04. Удержаться не могу
05. Baby, I Love You
06. Ждут великие дела
07. Мало-мало
08. Я знаю точно
09. Почему девченки делают так?
10. Милая мадам
11. Как дела?
12. Позвони
13. Хочу тебя срочно

Back

Лог

Exact Audio Copy V0.99 prebeta 5 from 4. May 2009
Отчёт EAC об извлечении, выполненном 3. ноября 2009, 18:15
Игорёк / Чисто Без Грязи...
Дисковод: ASUS DRW-1814BL Adapter: 1 ID: 0
Режим чтения : Достоверность
Использование точного потока : Да
Отключение кэша аудио : Да
Использование указателей C2 : Нет
Коррекция смещения при чтении : 6
Способность читать области Lead-in и Lead-out : Нет
Заполнение пропущенных сэмплов тишиной : Да
Удаление блоков с тишиной в начале и конце : Нет
При вычислениях CRC использовались нулевые сэмплы : Да
Интерфейс : Установленный внешний ASPI-интерфейс
Выходной формат : Внутренние WAV-операции
Формат сэмплов : 44.100 Гц; 16 бит; стерео
TOC извлечённого CD
Трек | Старт | Длительность | Начальный сектор | Конечный сектор
---------------------------------------------------------------------
1 | 0:00.00 | 4:06.16 | 0 | 18465
2 | 4:06.16 | 3:01.52 | 18466 | 32092
3 | 7:07.68 | 2:57.70 | 32093 | 45437
4 | 10:05.63 | 3:39.52 | 45438 | 61914
5 | 13:45.40 | 3:19.53 | 61915 | 76892
6 | 17:05.18 | 2:38.54 | 76893 | 88796
7 | 19:43.72 | 3:25.53 | 88797 | 104224
8 | 23:09.50 | 3:21.28 | 104225 | 119327
9 | 26:31.03 | 2:43.06 | 119328 | 131558
10 | 29:14.09 | 2:51.54 | 131559 | 144437
11 | 32:05.63 | 3:15.37 | 144438 | 159099
12 | 35:21.25 | 3:28.70 | 159100 | 174769
13 | 38:50.20 | 2:57.04 | 174770 | 188048
Характеристики диапазона извлечения и сообщения об ошибках
Выбранный диапазон
Имя файла E:\НА-А-А-АШЕ!!!!!!!\Игорёк\Игорёк - Чисто без грязи\Игорёк - Чисто Без Грязи....wav
Пиковый уровень 100.0 %
Качество диапазона 100.0 %
CRC теста 3DB19D16
CRC копии 3DB19D16
Копирование... OK
Ошибок не произошло
AccurateRip: сводка
Трек 1 нет в базе данных
Трек 2 нет в базе данных
Трек 3 нет в базе данных
Трек 4 нет в базе данных
Трек 5 нет в базе данных
Трек 6 нет в базе данных
Трек 7 нет в базе данных
Трек 8 нет в базе данных
Трек 9 нет в базе данных
Трек 10 нет в базе данных
Трек 11 нет в базе данных
Трек 12 нет в базе данных
Трек 13 нет в базе данных
Ни одного трека нет в базе AccurateRip
Конец отчёта

Игорёк - Хочу тебя срочно - 2003

Хочу тебя срочно Треклист:

1. Хочу тебя срочно
2. Подождём
3. А что девчонкам надо (версия 2003)
4. Сказка
5. Держаться нету больше сил
6. Какая...
7. Кончита
8. Автосервис
9. Почему скучает Игорёк
10. Грачи (Энди & Игорёк)
11. Как мне жить
12. Ночные огоньки
13. Ну как же так ?!
14. Майорка
15. Кричи,кричи!
16. Девчонка Vamp
17. Не плачь

Back

Лог

Exact Audio Copy V0.99 prebeta 4 from 23. January 2008
Отчёт EAC об извлечении, выполненном 27. сентября 2008, 0:03
Игорек / Хочу тебя срочно
Дисковод: ASUS DRW-1814BL Adapter: 3 ID: 0
Режим чтения : Достоверность
Использование точного потока : Да
Отключение кэша аудио : Да
Использование указателей C2 : Нет
Коррекция смещения при чтении : 6
Способность читать области Lead-in и Lead-out : Нет
Заполнение пропущенных сэмплов тишиной : Да
Удаление блоков с тишиной в начале и конце : Нет
При вычислениях CRC использовались нулевые сэмплы : Нет
Интерфейс : Встроенный Win32-интерфейс для Win NT/2000
Выходной формат : Внутренние WAV-операции
Формат сэмплов : 44.100 Гц; 16 бит; стерео
TOC извлечённого CD
Трек | Старт | Длительность | Начальный сектор | Конечный сектор
---------------------------------------------------------------------
1 | 0:00.00 | 2:58.56 | 0 | 13405
2 | 2:58.56 | 3:25.31 | 13406 | 28811
3 | 6:24.12 | 3:27.55 | 28812 | 44391
4 | 9:51.67 | 3:53.70 | 44392 | 61936
5 | 13:45.62 | 3:55.00 | 61937 | 79561
6 | 17:40.62 | 3:05.54 | 79562 | 93490
7 | 20:46.41 | 3:36.38 | 93491 | 109728
8 | 24:23.04 | 3:16.22 | 109729 | 124450
9 | 27:39.26 | 2:55.23 | 124451 | 137598
10 | 30:34.49 | 3:38.72 | 137599 | 154020
11 | 34:13.46 | 3:10.58 | 154021 | 168328
12 | 37:24.29 | 4:07.31 | 168329 | 186884
13 | 41:31.60 | 3:24.02 | 186885 | 202186
14 | 44:55.62 | 3:39.64 | 202187 | 218675
15 | 48:35.51 | 3:56.05 | 218676 | 236380
16 | 52:31.56 | 3:20.01 | 236381 | 251381
17 | 55:51.57 | 3:03.09 | 251382 | 265115
Характеристики диапазона извлечения и сообщения об ошибках
Выбранный диапазон
Имя файла E:\НА-А-А-АШЕ!!!!!!!\Игорёк\Игорёк - Хочу тебя срочно\Игорек - Хочу тебя срочно.wav
Пиковый уровень 100.0 %
Качество диапазона 100.0 %
CRC теста 3BBD17F5
CRC копии 3BBD17F5
Копирование... OK
Ошибок не произошло
AccurateRip: сводка
Трек 1 нет в базе данных
Трек 2 нет в базе данных
Трек 3 нет в базе данных
Трек 4 нет в базе данных
Трек 5 нет в базе данных
Трек 6 нет в базе данных
Трек 7 нет в базе данных
Трек 8 нет в базе данных
Трек 9 нет в базе данных
Трек 10 нет в базе данных
Трек 11 нет в базе данных
Трек 12 нет в базе данных
Трек 13 нет в базе данных
Трек 14 нет в базе данных
Трек 15 нет в базе данных
Трек 16 нет в базе данных
Трек 17 нет в базе данных
Ни одного трека нет в базе AccurateRip
Конец отчёта

Игорёк - Третий - 2003

Третий Треклист:

01. Какая
02. Ночные огоньки (disco version)
03. Кричи,кричи (2003)
04. Почему скучает Игорёк (Игорёк и «Гавана»)
05. Девчонка Vamp
06. Держаться больше нету сил (2003)
07. А что девчонкам надо (2003)
08. Девочка Марина (Sam Will's SG mix)
09. Ну и что !? (Sam Will's HH mix)
10. Ночные огоньки (original version)
11. Ну и что!? (Sam Will's d&b mix)
12. Почему скучает Игорёк (украинская версия) (Игорёк и «Гавана»)
13. Автосервис (DJ Login mix)

Back

Лог

Exact Audio Copy V0.99 prebeta 4 from 23. January 2008
Отчёт EAC об извлечении, выполненном 4. октября 2008, 19:13
Игорёк / Третий
Дисковод: ASUS DRW-1814BL Adapter: 3 ID: 0
Режим чтения : Достоверность
Использование точного потока : Да
Отключение кэша аудио : Да
Использование указателей C2 : Нет
Коррекция смещения при чтении : 6
Способность читать области Lead-in и Lead-out : Нет
Заполнение пропущенных сэмплов тишиной : Да
Удаление блоков с тишиной в начале и конце : Нет
При вычислениях CRC использовались нулевые сэмплы : Нет
Интерфейс : Встроенный Win32-интерфейс для Win NT/2000
Выходной формат : Внутренние WAV-операции
Формат сэмплов : 44.100 Гц; 16 бит; стерео
TOC извлечённого CD
Трек | Старт | Длительность | Начальный сектор | Конечный сектор
---------------------------------------------------------------------
1 | 0:00.00 | 3:05.54 | 0 | 13928
2 | 3:05.54 | 3:53.32 | 13929 | 31435
3 | 6:59.11 | 3:57.00 | 31436 | 49210
4 | 10:56.11 | 2:55.23 | 49211 | 62358
5 | 13:51.34 | 3:20.01 | 62359 | 77359
6 | 17:11.35 | 3:16.19 | 77360 | 92078
7 | 20:27.54 | 3:27.55 | 92079 | 107658
8 | 23:55.34 | 4:28.71 | 107659 | 127829
9 | 28:24.30 | 3:49.26 | 127830 | 145030
10 | 32:13.56 | 4:07.31 | 145031 | 163586
11 | 36:21.12 | 4:00.67 | 163587 | 181653
12 | 40:22.04 | 2:54.65 | 181654 | 194768
13 | 43:16.69 | 3:28.26 | 194769 | 210394
Характеристики диапазона извлечения и сообщения об ошибках
Выбранный диапазон
Имя файла E:\НА-А-А-АШЕ!!!!!!!\Игорёк\Игорёк - Третий\Игорёк - Третий.wav
Пиковый уровень 99.6 %
Качество диапазона 99.9 %
CRC теста 885080CA
CRC копии 885080CA
Копирование... OK
Ошибок не произошло
AccurateRip: сводка
Трек 1 нет в базе данных
Трек 2 нет в базе данных
Трек 3 нет в базе данных
Трек 4 нет в базе данных
Трек 5 нет в базе данных
Трек 6 нет в базе данных
Трек 7 нет в базе данных
Трек 8 нет в базе данных
Трек 9 нет в базе данных
Трек 10 нет в базе данных
Трек 11 нет в базе данных
Трек 12 нет в базе данных
Трек 13 нет в базе данных
Ни одного трека нет в базе AccurateRip
Конец отчёта

Игорёк - Бабки есть! - 2002

Бабки есть! Треклист:

1. INTRO
2. Не плачь
3. Кричи, кричи!
4. Ну как же так!
5. Сказка
6. Give it to me
7. Под дождем
8. Кончита
9. Грачи (ЭНDИ & Игорек)
10. Ну и что!
11. Хей. ребята! (Sam Will's drum'n'base mix)
12. Автосервис (Club mix)
13. Доигрался-навлюблялся (В. Ульянов mix)
14. Ну и что! (Sam Will's club mix)
15. Сказка (караоке версия)

Back

Лог

Exact Audio Copy V0.99 prebeta 4 from 23. January 2008
Отчёт EAC об извлечении, выполненном 13. октября 2008, 7:19
Игорек / Бабки есть!
Дисковод: ASUS DRW-1814BL Adapter: 3 ID: 0
Режим чтения : Достоверность
Использование точного потока : Да
Отключение кэша аудио : Да
Использование указателей C2 : Нет
Коррекция смещения при чтении : 6
Способность читать области Lead-in и Lead-out : Нет
Заполнение пропущенных сэмплов тишиной : Да
Удаление блоков с тишиной в начале и конце : Нет
При вычислениях CRC использовались нулевые сэмплы : Нет
Интерфейс : Встроенный Win32-интерфейс для Win NT/2000
Выходной формат : Внутренние WAV-операции
Формат сэмплов : 44.100 Гц; 16 бит; стерео
TOC извлечённого CD
Трек | Старт | Длительность | Начальный сектор | Конечный сектор
---------------------------------------------------------------------
1 | 0:00.00 | 0:28.51 | 0 | 2150
2 | 0:28.51 | 3:03.09 | 2151 | 15884
3 | 3:31.60 | 3:56.05 | 15885 | 33589
4 | 7:27.65 | 3:24.02 | 33590 | 48891
5 | 10:51.67 | 3:53.70 | 48892 | 66436
6 | 14:45.62 | 3:29.06 | 66437 | 82117
7 | 18:14.68 | 2:34.19 | 82118 | 93686
8 | 20:49.12 | 3:36.38 | 93687 | 109924
9 | 24:25.50 | 3:38.72 | 109925 | 126346
10 | 28:04.47 | 4:00.28 | 126347 | 144374
11 | 32:05.00 | 3:12.21 | 144375 | 158795
12 | 35:17.21 | 3:24.14 | 158796 | 174109
13 | 38:41.35 | 4:31.35 | 174110 | 194469
14 | 43:12.70 | 4:33.24 | 194470 | 214968
15 | 47:46.19 | 3:52.16 | 214969 | 232384
Характеристики диапазона извлечения и сообщения об ошибках
Выбранный диапазон
Имя файла E:\НА-А-А-АШЕ!!!!!!!\Игорёк\Игорёк - Бабки есть!\Игорек - Бабки есть!.wav
Пиковый уровень 100.0 %
Качество диапазона 99.9 %
CRC теста 5B86C149
CRC копии 5B86C149
Копирование... OK
Ошибок не произошло
AccurateRip: сводка
Трек 1 нет в базе данных
Трек 2 нет в базе данных
Трек 3 нет в базе данных
Трек 4 нет в базе данных
Трек 5 нет в базе данных
Трек 6 нет в базе данных
Трек 7 нет в базе данных
Трек 8 нет в базе данных
Трек 9 нет в базе данных
Трек 10 нет в базе данных
Трек 11 нет в базе данных
Трек 12 нет в базе данных
Трек 13 нет в базе данных
Трек 14 нет в базе данных
Трек 15 нет в базе данных
Ни одного трека нет в базе AccurateRip
Конец отчёта

Игорёк - Любовь без денег - 2001

Любовь без денег Треклист:

01. Хэй, ребята!
02. Подождем
03. Держаться больше нету сил
04. Доигрался-навлюблялся
05. Как мне жить
06. Автосервис
07. Девочка Марина
08. Очень надо
09. Майорка
10. Как всегда
11. Подождем (remix DJ Змей & Sam Wills)
12. Подождем (караоке версия)

Back

Лог

Exact Audio Copy V0.99 prebeta 4 from 23. January 2008
Отчёт EAC об извлечении, выполненном 23. февраля 2009, 21:11
Игорёк / Любовь без денег
Дисковод: ASUS DRW-1814BL Adapter: 1 ID: 0
Режим чтения : Достоверность
Использование точного потока : Да
Отключение кэша аудио : Да
Использование указателей C2 : Нет
Коррекция смещения при чтении : 6
Способность читать области Lead-in и Lead-out : Нет
Заполнение пропущенных сэмплов тишиной : Да
Удаление блоков с тишиной в начале и конце : Нет
При вычислениях CRC использовались нулевые сэмплы : Да
Интерфейс : Встроенный Win32-интерфейс для Win NT/2000
Выходной формат : Внутренние WAV-операции
Формат сэмплов : 44.100 Гц; 16 бит; стерео
TOC извлечённого CD
Трек | Старт | Длительность | Начальный сектор | Конечный сектор
---------------------------------------------------------------------
1 | 0:00.10 | 3:34.62 | 10 | 16121
2 | 3:34.72 | 3:25.58 | 16122 | 31554
3 | 7:00.55 | 3:55.22 | 31555 | 49201
4 | 10:56.02 | 4:16.02 | 49202 | 68403
5 | 15:12.04 | 3:11.02 | 68404 | 82730
6 | 18:23.06 | 3:16.45 | 82731 | 97475
7 | 21:39.51 | 3:54.39 | 97476 | 115064
8 | 25:34.15 | 3:36.55 | 115065 | 131319
9 | 29:10.70 | 3:40.11 | 131320 | 147830
10 | 32:51.06 | 3:20.26 | 147831 | 162856
11 | 36:11.32 | 4:59.09 | 162857 | 185290
12 | 41:10.41 | 3:24.09 | 185291 | 200599
Характеристики диапазона извлечения и сообщения об ошибках
Выбранный диапазон
Имя файла E:\НА-А-А-АШЕ!!!!!!!\Игорёк\Игорёк - Любовь без денег\Игорёк - Любовь без денег.wav
Пиковый уровень 78.6 %
Качество диапазона 100.0 %
CRC теста F69AFF57
CRC копии F69AFF57
Копирование... OK
Ошибок не произошло
AccurateRip: сводка
Трек 1 нет в базе данных
Трек 2 нет в базе данных
Трек 3 нет в базе данных
Трек 4 нет в базе данных
Трек 5 нет в базе данных
Трек 6 нет в базе данных
Трек 7 нет в базе данных
Трек 8 нет в базе данных
Трек 9 нет в базе данных
Трек 10 нет в базе данных
Трек 11 нет в базе данных
Трек 12 нет в базе данных
Ни одного трека нет в базе AccurateRip
Конец отчёта

Игорёк - Подождем твою мать... - 2001

Подождем твою мать... Треклист:

01. Подождем (original edit)
02. Chicago bulls
03. My love - Танюха
04. Как мне жить
05. Малыш
06. My love Natasha
07. Argentina tango
08. TV - Star
09. La - Rum (dance mix)
10. Как мне жить (kael trip mix)
11. My love - Natasha (speed mix)
12. Megamix

Back

Лог

Exact Audio Copy V0.99 prebeta 5 from 4. May 2009
Отчёт EAC об извлечении, выполненном 3. декабря 2009, 23:34
Игорёк / Подождём твою мать...
Дисковод: ASUS DRW-1814BL Adapter: 1 ID: 0
Режим чтения : Достоверность
Использование точного потока : Да
Отключение кэша аудио : Да
Использование указателей C2 : Нет
Коррекция смещения при чтении : 6
Способность читать области Lead-in и Lead-out : Нет
Заполнение пропущенных сэмплов тишиной : Да
Удаление блоков с тишиной в начале и конце : Нет
При вычислениях CRC использовались нулевые сэмплы : Да
Интерфейс : Установленный внешний ASPI-интерфейс
Выходной формат : Внутренние WAV-операции
Формат сэмплов : 44.100 Гц; 16 бит; стерео
TOC извлечённого CD
Трек | Старт | Длительность | Начальный сектор | Конечный сектор
---------------------------------------------------------------------
1 | 0:00.00 | 3:20.69 | 0 | 15068
2 | 3:20.69 | 4:11.72 | 15069 | 33965
3 | 7:32.66 | 3:48.07 | 33966 | 51072
4 | 11:20.73 | 2:50.56 | 51073 | 63878
5 | 14:11.54 | 4:25.16 | 63879 | 83769
6 | 18:36.70 | 4:25.62 | 83770 | 103706
7 | 23:02.57 | 3:55.66 | 103707 | 121397
8 | 26:58.48 | 3:04.61 | 121398 | 135258
9 | 30:03.34 | 4:09.22 | 135259 | 153955
10 | 34:12.56 | 3:14.51 | 153956 | 168556
11 | 37:27.32 | 4:40.24 | 168557 | 189580
12 | 42:07.56 | 6:13.14 | 189581 | 217569
Характеристики диапазона извлечения и сообщения об ошибках
Выбранный диапазон
Имя файла E:\НА-А-А-АШЕ!!!!!!!\Игорёк\Игорёк - Подождём твою мать\Игорёк - Подождём твою мать....wav
Пиковый уровень 100.0 %
Качество диапазона 99.9 %
CRC теста ACF72C85
CRC копии ACF72C85
Копирование... OK
Ошибок не произошло
AccurateRip: сводка
Трек 1 нет в базе данных
Трек 2 нет в базе данных
Трек 3 нет в базе данных
Трек 4 нет в базе данных
Трек 5 нет в базе данных
Трек 6 нет в базе данных
Трек 7 нет в базе данных
Трек 8 нет в базе данных
Трек 9 нет в базе данных
Трек 10 нет в базе данных
Трек 11 нет в базе данных
Трек 12 нет в базе данных
Ни одного трека нет в базе AccurateRip
Конец отчёта

[Цитировать]



Показать сообщения:    

Текущее время: 10-Дек 08:03

Часовой пояс: UTC + 3


Вы не можете начинать темы
Вы не можете отвечать на сообщения
Вы не можете редактировать свои сообщения
Вы не можете удалять свои сообщения
Вы не можете голосовать в опросах
Вы не можете прикреплять файлы к сообщениям
Вы не можете скачивать файлы

!ВНИМАНИЕ!
Сайт не предоставляет электронные версии произведений, а занимается лишь коллекционированием и каталогизацией ссылок, присылаемых и публикуемых на форуме нашими читателями. Если вы являетесь правообладателем какого-либо представленного материала и не желаете, чтобы ссылка на него находилась в нашем каталоге, свяжитесь с нами, и мы незамедлительно удалим ее. Файлы для обмена на трекере предоставлены пользователями сайта, и администрация не несет ответственности за их содержание. Просьба не заливать файлы, защищенные авторскими правами, а также файлы нелегального содержания!