[ Сегодня идет свободное скачивание без начисления Download ]


Статистика раздачи
Скачал: [ 4 ]
 
   
 
Top  
 
 
ITVDN | Разработка пользовательского граф. интерфейса под Xamarin (2015) PCRec - Автор (режиссер): Олег Шишка
Производство: ITVDN
Жанр: Программирование, c#, xamarin, android
Описание:
Данный курс является прекрасной возможностью научиться разработке программного обеспечения для платформы Android с помощью C# и проверить все его преимущества. В этом курсе Вы узнаете о способах создания пользовательского интерфейса для Android приложений. Также данный курс включает в себе описание возможных разновидностей построения интерфейса и покажет Вам главные методы размещения контролов в приложениях.
Продолжительность: 05:39:00
Качество видео: PCRec
Видео: AVC/H.264, 1154x720, ~243 kb/s
Аудио: AAC, 2 ch, 235 kb/s, CBR

Mediainfo:

General
Complete name : D:\КУРСЫ\ITVDN NEW\Xamarin\Урок 1.MP4
Format : MPEG-4
Format profile : Base Media / Version 2
Codec ID : mp42 (mp42/mp41/isom/avc1)
File size : 105 MiB
Duration : 30 min
Overall bit rate mode : Variable
Overall bit rate : 483 kb/s
Encoded date : UTC 2016-07-06 12:41:57
Tagged date : UTC 2016-07-06 12:41:57
Video
ID : 1
Format : AVC
Format/Info : Advanced Video Codec
Format profile : High@L3.2
Format settings, CABAC : Yes
Format settings, ReFrames : 5 frames
Codec ID : avc1
Codec ID/Info : Advanced Video Coding
Duration : 30 min
Bit rate : 243 kb/s
Width : 1 154 pixels
Height : 720 pixels
Display aspect ratio : 16:10
Frame rate mode : Constant
Frame rate : 30.000 FPS
Color space : YUV
Chroma subsampling : 4:2:0
Bit depth : 8 bits
Scan type : Progressive
Bits/(Pixel*Frame) : 0.010
Stream size : 52.9 MiB (50%)
Writing library : x264 core 148 r11 3b70645
Encoding settings : cabac=1 / ref=5 / deblock=1:0:0 / analyse=0x3:0x113 / me=umh / subme=8 / psy=1 / psy_rd=1.00:0.00 / mixed_ref=1 / me_range=16 / chroma_me=1 / trellis=1 / 8x8dct=1 / cqm=0 / deadzone=21,11 / fast_pskip=1 / chroma_qp_offset=-2 / threads=22 / lookahead_threads=3 / sliced_threads=0 / nr=0 / decimate=1 / interlaced=0 / bluray_compat=0 / stitchable=1 / constrained_intra=0 / bframes=3 / b_pyramid=2 / b_adapt=2 / b_bias=0 / direct=3 / weightb=1 / open_gop=0 / weightp=2 / keyint=infinite / keyint_min=30 / scenecut=40 / intra_refresh=0 / rc_lookahead=50 / rc=crf / mbtree=1 / crf=20.0 / qcomp=0.60 / qpmin=5 / qpmax=69 / qpstep=4 / vbv_maxrate=2750 / vbv_bufsize=7500 / crf_max=0.0 / nal_hrd=none / filler=0 / ip_ratio=1.40 / aq=1:1.00
Encoded date : UTC 2016-07-06 12:41:57
Tagged date : UTC 2016-07-06 12:41:57
Color range : Limited
Color primaries : BT.709
Transfer characteristics : BT.709
Matrix coefficients : BT.709
Audio
ID : 2
Format : AAC
Format/Info : Advanced Audio Codec
Format profile : LC
Codec ID : 40
Duration : 30 min
Bit rate mode : Variable
Bit rate : 235 kb/s
Channel(s) : 2 channels
Channel positions : Front: L R
Sampling rate : 48.0 kHz
Frame rate : 46.875 FPS (1024 spf)
Compression mode : Lossy
Stream size : 51.2 MiB (49%)
Encoded date : UTC 2016-07-06 12:41:57
Tagged date : UTC 2016-07-06 12:41:57

Дополнительная информация:

1. Введение в Xamarin.Android
2. Контейнеры компоновки
3. Элементы управления. Часть 1
4. Элементы управления. Часть 2
5. Меню в Android
P.S. - Оригинальное название курса: Разработка пользовательского графического интерфейса (GUI) на C# под Android (Xamarin)
Скриншоты:

[Цитировать]



Показать сообщения:    

Текущее время: 08-Дек 21:18

Часовой пояс: UTC + 3


Вы не можете начинать темы
Вы не можете отвечать на сообщения
Вы не можете редактировать свои сообщения
Вы не можете удалять свои сообщения
Вы не можете голосовать в опросах
Вы не можете прикреплять файлы к сообщениям
Вы не можете скачивать файлы

!ВНИМАНИЕ!
Сайт не предоставляет электронные версии произведений, а занимается лишь коллекционированием и каталогизацией ссылок, присылаемых и публикуемых на форуме нашими читателями. Если вы являетесь правообладателем какого-либо представленного материала и не желаете, чтобы ссылка на него находилась в нашем каталоге, свяжитесь с нами, и мы незамедлительно удалим ее. Файлы для обмена на трекере предоставлены пользователями сайта, и администрация не несет ответственности за их содержание. Просьба не заливать файлы, защищенные авторскими правами, а также файлы нелегального содержания!