[ Сегодня идет свободное скачивание без начисления Download ]


Статистика раздачи
Нет
 
   
 
Top  
 
 
--Боги Египта / Gods of Egypt (2016) BDRip 1080p HEVC | 60 fps-- Год выпуска: 2016
Страна: США
Жанр: фэнтези, боевик, приключения
Продолжительность: 02:06:50
Перевод: профессиональный (полное дублирование) [Лицензия]
Субтитры: eng, eng (SDH)
В ролях: Джерард Батлер, Брентон Туэйтс, Николай Костер-Вальдау, Кортни Итон, Эбби Ли, Джеффри Раш, Руфус Сьюэлл, Элоди Юнг, Чедвик Боузман, Брюс Спенс и др.
Режиссёр: Алекс Пройас
Описание:
Некогда мирное и процветающее египетское царство погружается в хаос: беспощадный бог тьмы Сет убивает своего брата Осириса и узурпирует трон. Вызов ему неожиданно бросает простой смертный, находчивый молодой вор. Чтобы вернуть к жизни свою прекрасную возлюбленную, ему приходится заручиться поддержкой могущественного и мстительного бога Гора. Лишь выдержав испытание на прочность и принеся в жертву все самое дорогое, им удастся противостоять Сету и его приспешникам в мире живых и мире мертвых.

Качество: BDRip 1080p
Формат: mkv
Видео кодек: h.265
Аудио кодек: AC3
Видео: HEVC (h265), 1920x800, 60 fps, 9 853 kbps
Аудио1: rus, AC3 5.1, 48000Hz, 6ch, 640 kbps
Аудио2: eng, AC3 5.1, 48000Hz, 6ch, 640 kbps

MI

General
Unique ID : 244951211883656527953205115696964439435 (0xB847E32BDD497A8FB161ED3CB6100D8B)
Complete name : D:\RIP\Rip в работе\XviD4PSP\Боги Египта\Gods of Egypt.mkv
Format : Matroska
Format version : Version 4 / Version 2
File size : 9.91 GiB
Duration : 2h 7mn
Overall bit rate : 11.2 Mbps
Encoded date : UTC 2016-05-22 20:22:27
Writing application : mkvmerge v8.2.0 ('World of Adventure') 64bit
Writing library : libebml v1.3.1 + libmatroska v1.4.2
Attachments : poster.png
Video
ID : 1
Format : HEVC
Format/Info : High Efficiency Video Coding
Format profile : Main
Codec ID : V_MPEGH/ISO/HEVC
Duration : 2h 7mn
Bit rate : 9 853 Kbps
Width : 1 920 pixels
Height : 800 pixels
Display aspect ratio : 2.40:1
Frame rate mode : Variable
Frame rate : 60.000 fps
Color space : YUV
Chroma subsampling : 4:2:0
Bit depth : 8 bits
Bits/(Pixel*Frame) : 0.107
Stream size : 8.74 GiB (88%)
Writing library : x265 1.9+150-00ea3784bd36:[Windows][GCC 5.3.0][64 bit] 8bit
Encoding settings : wpp / ctu=64 / min-cu-size=8 / max-tu-size=32 / tu-intra-depth=1 / tu-inter-depth=1 / me=3 / subme=7 / merange=64 / no-rect / no-amp / max-merge=2 / temporal-mvp / no-early-skip / rdpenalty=0 / no-tskip / no-tskip-fast / strong-intra-smoothing / no-lossless / no-cu-lossless / no-constrained-intra / no-fast-intra / open-gop / no-temporal-layers / interlace=0 / keyint=250 / min-keyint=25 / scenecut=40 / rc-lookahead=60 / lookahead-slices=5 / bframes=3 / bframe-bias=0 / b-adapt=2 / ref=6 / limit-refs=3 / no-limit-modes / weightp / weightb / aq-mode=1 / qg-size=32 / aq-strength=1.00 / cbqpoffs=0 / crqpoffs=0 / rd=3 / psy-rd=2.00 / rdoq-level=0 / psy-rdoq=0.00 / no-rd-refine / signhide / deblock=-2:-2 / sao / no-sao-non-deblock / b-pyramid / cutree / no-intra-refresh / rc=cbr / bitrate=10000 / qcomp=0.60 / qpmin=0 / qpmax=51 / qpstep=4 / vbv-maxrate=10000 / vbv-bufsize=10000 / ipratio=1.40 / pbratio=1.30
Default : Yes
Forced : No
Audio #1
ID : 2
Format : AC-3
Format/Info : Audio Coding 3
Mode extension : CM (complete main)
Format settings, Endianness : Big
Codec ID : A_AC3
Duration : 2h 7mn
Bit rate mode : Constant
Bit rate : 640 Kbps
Channel(s) : 6 channels
Channel positions : Front: L C R, Side: L R, LFE
Sampling rate : 48.0 KHz
Frame rate : 31.250 fps (1536 spf)
Compression mode : Lossy
Stream size : 582 MiB (6%)
Language : Russian
Default : Yes
Forced : No
Audio #2
ID : 3
Format : AC-3
Format/Info : Audio Coding 3
Mode extension : CM (complete main)
Format settings, Endianness : Big
Codec ID : A_AC3
Duration : 2h 7mn
Bit rate mode : Constant
Bit rate : 640 Kbps
Channel(s) : 6 channels
Channel positions : Front: L C R, Side: L R, LFE
Sampling rate : 48.0 KHz
Frame rate : 31.250 fps (1536 spf)
Compression mode : Lossy
Stream size : 582 MiB (6%)
Language : English
Default : No
Forced : No
Text #1
ID : 4
Format : PGS
Muxing mode : zlib
Codec ID : S_HDMV/PGS
Codec ID/Info : Picture based subtitle format used on BDs/HD-DVDs
Duration : 1h 55mn
Bit rate : 12.0 Kbps
Count of elements : 9811
Stream size : 9.89 MiB (0%)
Language : English
Default : No
Forced : No
Text #2
ID : 5
Format : PGS
Muxing mode : zlib
Codec ID : S_HDMV/PGS
Codec ID/Info : Picture based subtitle format used on BDs/HD-DVDs
Duration : 1h 55mn
Bit rate : 13.5 Kbps
Count of elements : 11926
Stream size : 11.1 MiB (0%)
Language : English
Default : No
Forced : No

Скриншоты

[Цитировать]



Показать сообщения:    

Текущее время: 26-Июн 02:46

Часовой пояс: UTC + 6


Вы не можете начинать темы
Вы не можете отвечать на сообщения
Вы не можете редактировать свои сообщения
Вы не можете удалять свои сообщения
Вы не можете голосовать в опросах
Вы не можете прикреплять файлы к сообщениям
Вы не можете скачивать файлы

!ВНИМАНИЕ!
Сайт не предоставляет электронные версии произведений, а занимается лишь коллекционированием и каталогизацией ссылок, присылаемых и публикуемых на форуме нашими читателями. Если вы являетесь правообладателем какого-либо представленного материала и не желаете, чтобы ссылка на него находилась в нашем каталоге, свяжитесь с нами, и мы незамедлительно удалим ее. Файлы для обмена на трекере предоставлены пользователями сайта, и администрация не несет ответственности за их содержание. Просьба не заливать файлы, защищенные авторскими правами, а также файлы нелегального содержания!