[ Сегодня идет свободное скачивание без начисления Download ]


Статистика раздачи
Скачал: [ 1 ]
 
   
 
Top  
 
 
Пять минут рая / Five Minutes of Heaven (2009) BDRip 1080p Информация о фильме
Название: Пять минут рая
Оригинальное название: Five Minutes of Heaven
Год выхода: 2009
Жанр: драма
Режиссер: Оливер Хиршбигель
В ролях: Лиам Нисон, Джеймс Несбитт, Марк Райдер, Дьярмуид Нойес, Ниам Кьюсак, Мэтью МакЭлхинни, Конор МакНил, Пол Гаррет, Кевин О’Нилл, Герард Джордан
О фильме:
В 1975 году 17-летний Алистер Литтл, активист Ольстерских Добровольческих Сил, застрелил 19-летнего католика Джима Гриффина в его собственном доме. Свидетелем убийства стал младший брат Джима, Джо.
Тридцать лет спустя, реабилитированный и перевоспитавшийся Алистер вышел из тюрьмы, а Джо Гриффин по-прежнему несет тяжкий груз преступления, свидетелем которого ему пришлось стать. Согласившись стать участниками телевизионной передачи, создатели которой хотят устроить их примирение в прямом эфире, двое мужчин впервые встретятся лицом к лицу не только друг с другом, но и с собственной болью, ненавистью и жаждой мести.

Страна: Великобритания, Ирландия
Студия: Big Fish Films, Element Pictures, Irish Film Board, Ruby Films
Продолжительность: 01:29:09
Перевод: Авторский (одноголосый, закадровый) Юрий Сербин
Файл
Формат: Matroska
Видео: 1920х1040 at 24.000 fps, x264@L4.1, ~10500 kbps avg
Аудио#1: Russian: 48 kHz, AC3, 3/2 (L,C,R,l,r) + LFE ch, ~448 kbps avg |Авторский, Ю.Сербин|
Аудио#2: English: 48 kHz, AC3, 3/2 (L,C,R,l,r) + LFE ch, ~448 kbps avg
Субтитры: Russian, English, French, Spanish, Portuguese

MI

Общее
Уникальный идентификатор : 213554526027833127939639534835922636278 (0xA0A91B0B76367FB0BAACFA94C2D40DF6)
Полное имя : Five.Minutes.of.Heaven.2008.BDRip.(1080p).mkv
Формат : Matroska
Версия формата : Version 4 / Version 2
Размер файла : 7,10 Гбайт
Продолжительность : 1 ч. 29 м.
Общий поток : 11,4 Мбит/сек
Название фильма : Five Minutes of Heaven (2008)
Дата кодирования : UTC 2016-07-07 21:27:52
Программа кодирования : mkvmerge v6.9.1 ('Blue Panther') 64bit built on Apr 18 2014 18:23:38
Библиотека кодирования : libebml v1.3.0 + libmatroska v1.4.1
Видео
Идентификатор : 1
Формат : AVC
Формат/Информация : Advanced Video Codec
Профиль формата : High@L4.1
Параметр CABAC формата : Да
Параметр ReFrames формата : 4 кадра
Идентификатор кодека : V_MPEG4/ISO/AVC
Продолжительность : 1 ч. 29 м.
Битрейт : 10,5 Мбит/сек
Ширина : 1920 пикселей
Высота : 1040 пикселей
Соотношение сторон : 1,85:1
Режим частоты кадров : Постоянный
Частота кадров : 24,000 кадра/сек
Цветовое пространство : YUV
Субдискретизация насыщенности : 4:2:0
Битовая глубина : 8 бит
Тип развёртки : Прогрессивная
Бит/(Пиксели*Кадры) : 0.219
Размер потока : 6,40 Гбайт (90%)
Заголовок : Five Minutes of Heaven (2008)
Библиотека кодирования : x264 core 148 r2638 7599210
Настройки программы : cabac=1 / ref=4 / deblock=1:-3:-3 / analyse=0x3:0x133 / me=umh / subme=11 / psy=1 / psy_rd=1.00:0.00 / mixed_ref=1 / me_range=32 / chroma_me=1 / trellis=2 / 8x8dct=1 / cqm=0 / deadzone=21,11 / fast_pskip=1 / chroma_qp_offset=-2 / threads=6 / lookahead_threads=1 / sliced_threads=0 / nr=0 / decimate=1 / interlaced=0 / bluray_compat=0 / constrained_intra=0 / bframes=3 / b_pyramid=2 / b_adapt=2 / b_bias=0 / direct=3 / weightb=1 / open_gop=0 / weightp=2 / keyint=240 / keyint_min=24 / scenecut=40 / intra_refresh=0 / rc_lookahead=60 / rc=2pass / mbtree=1 / bitrate=10499 / ratetol=1.0 / qcomp=0.60 / qpmin=0 / qpmax=69 / qpstep=4 / cplxblur=20.0 / qblur=0.5 / vbv_maxrate=50000 / vbv_bufsize=62500 / nal_hrd=none / filler=0 / ip_ratio=1.40 / aq=1:1.00
Язык : English
Default : Да
Forced : Нет
Аудио #1
Идентификатор : 2
Формат : AC-3
Формат/Информация : Audio Coding 3
Расширение режима : CM (complete main)
Параметр Endianness формата : Big
Идентификатор кодека : A_AC3
Продолжительность : 1 ч. 29 м.
Вид битрейта : Постоянный
Битрейт : 448 Кбит/сек
Каналы : 6 каналов
Расположение каналов : Front: L C R, Side: L R, LFE
Частота : 48,0 КГц
Метод сжатия : С потерями
Размер потока : 286 Мбайт (4%)
Заголовок : AC3, 6 ch, 448 Kbps, AVO, Юрий Сербин
Язык : Russian
Default : Да
Forced : Нет
Аудио #2
Идентификатор : 3
Формат : AC-3
Формат/Информация : Audio Coding 3
Расширение режима : CM (complete main)
Параметр Endianness формата : Big
Идентификатор кодека : A_AC3
Продолжительность : 1 ч. 29 м.
Вид битрейта : Постоянный
Битрейт : 448 Кбит/сек
Каналы : 6 каналов
Расположение каналов : Front: L C R, Side: L R, LFE
Частота : 48,0 КГц
Метод сжатия : С потерями
Размер потока : 286 Мбайт (4%)
Заголовок : AC3, 6 ch, 448 Kbps, Original
Язык : English
Default : Нет
Forced : Нет
Текст #1
Идентификатор : 4
Формат : UTF-8
Идентификатор кодека : S_TEXT/UTF8
Идентификатор кодека/Информация : UTF-8 Plain Text
Язык : Russian
Default : Нет
Forced : Нет
Текст #2
Идентификатор : 5
Формат : UTF-8
Идентификатор кодека : S_TEXT/UTF8
Идентификатор кодека/Информация : UTF-8 Plain Text
Язык : English
Default : Нет
Forced : Нет
Текст #3
Идентификатор : 6
Формат : UTF-8
Идентификатор кодека : S_TEXT/UTF8
Идентификатор кодека/Информация : UTF-8 Plain Text
Язык : French
Default : Нет
Forced : Нет
Текст #4
Идентификатор : 7
Формат : UTF-8
Идентификатор кодека : S_TEXT/UTF8
Идентификатор кодека/Информация : UTF-8 Plain Text
Язык : Spanish
Default : Нет
Forced : Нет
Текст #5
Идентификатор : 8
Формат : UTF-8
Идентификатор кодека : S_TEXT/UTF8
Идентификатор кодека/Информация : UTF-8 Plain Text
Язык : Portuguese
Default : Нет
Forced : Нет
Меню
00:00:00.000 : en:Have To Do Something
00:02:19.832 : en:The Best Look
00:07:32.375 : en:"I Know Him"
00:13:44.333 : en:The Military
00:17:08.958 : en:The Hit
00:21:30.875 : en:Twelve Years
00:26:44.791 : en:Not To Blame
00:32:24.000 : en:A Nice Speech
00:37:20.416 : en:Smoke Break
00:43:33.083 : en:"Who I Was"
00:49:26.500 : en:First Take
00:53:29.291 : en:No Camera
01:00:33.708 : en:Level of Guilt
01:06:01.291 : en:The Wait Begins
01:11:22.500 : en:Revenge
01:20:50.708 : en:Finished
01:25:00.625 : en:End Credits

Скриншоты

[Цитировать]



Показать сообщения:    

Текущее время: 10-Дек 23:27

Часовой пояс: UTC + 3


Вы не можете начинать темы
Вы не можете отвечать на сообщения
Вы не можете редактировать свои сообщения
Вы не можете удалять свои сообщения
Вы не можете голосовать в опросах
Вы не можете прикреплять файлы к сообщениям
Вы не можете скачивать файлы

!ВНИМАНИЕ!
Сайт не предоставляет электронные версии произведений, а занимается лишь коллекционированием и каталогизацией ссылок, присылаемых и публикуемых на форуме нашими читателями. Если вы являетесь правообладателем какого-либо представленного материала и не желаете, чтобы ссылка на него находилась в нашем каталоге, свяжитесь с нами, и мы незамедлительно удалим ее. Файлы для обмена на трекере предоставлены пользователями сайта, и администрация не несет ответственности за их содержание. Просьба не заливать файлы, защищенные авторскими правами, а также файлы нелегального содержания!