[ Сегодня идет свободное скачивание без начисления Download ]


Статистика раздачи
Скачал: [ 2 ]
 
   
 
Top  
 
 
Назад в СССР (2010) DVDRip Информация о фильме
Название: Назад в СССР
Год выхода: 2010
Жанр: Комедия, драма, мелодрама
Режиссёр: Валерий Рожнов
В ролях: Марат Башаров, Карина Андоленко, Александр Андриенко, Андрей Кочинов, Евгений Миллер, Сергей Баринов, Дмитрий Грачев, Ольга Полякова, Олег Чернигов
О фильме: Антон — преуспевающий бизнесмен, переживающий кризис среднего возраста. Он не чувствует себя счастливым, имея все, что он мог бы пожелать. Он много выпивает, и по совету близкого друга, начинает посещать общество анонимных алкоголиков. Там он знакомится с человеком, называющим себя Сталкером, который предлагает приключение и ощущения, которых он никогда не испытывал. Антон соглашается и очень скоро понимает, что оказался в 1975 году...

Страна: Россия
Студия: Кинокомпания «Магнум»
Продолжительность: 03:12:22
Перевод: Не требуется (оригинальный)
Файл
Формат: avi
Качество: DVDRip (DVD9)
Видео: XviD, 624х352, 25fps, 950kbps
Аудио: MPEG Layer 3, 2ch, 48000Hz, 128kbps

MediaInfo

General
Complete name : Nazad.V.SSSR.2010.O.DVDRip.1400.CurHaJI.avi
Format : AVI
Format/Info : Audio Video Interleave
File size : 1.46 GiB
Duration : 3h 12mn
Overall bit rate : 1 087 Kbps
Movie name : Nazad.V.SSSR.2010.O.DVDRip.1400.CurHaJI
Writing application : VirtualDubMod 1.5.10.3 | www.virtualdub-fr.org || (build 2550/release)
Writing library : VirtualDub build 35491/release
Video
ID : 0
Format : MPEG-4 Visual
Format profile : Advanced Simple@L5
Format settings, BVOP : 2
Format settings, QPel : No
Format settings, GMC : No warppoints
Format settings, Matrix : Custom
Codec ID : XVID
Codec ID/Hint : XviD
Duration : 3h 12mn
Bit rate : 950 Kbps
Width : 624 pixels
Height : 352 pixels
Display aspect ratio : 16:9
Frame rate : 25.000 fps
Color space : YUV
Chroma subsampling : 4:2:0
Bit depth : 8 bits
Scan type : Progressive
Compression mode : Lossy
Bits/(Pixel*Frame) : 0.173
Stream size : 1.28 GiB (87%)
Writing library : XviD 73
Audio
ID : 1
Format : MPEG Audio
Format version : Version 1
Format profile : Layer 3
Codec ID : 55
Codec ID/Hint : MP3
Duration : 3h 12mn
Bit rate mode : Constant
Bit rate : 128 Kbps
Channel(s) : 2 channels
Sampling rate : 48.0 KHz
Compression mode : Lossy
Stream size : 176 MiB (12%)
Alignment : Aligned on interleaves
Interleave, duration : 40 ms (1.00 video frame)
Interleave, preload duration : 504 ms
Writing library : LAME3.99r
Encoding settings : -m s -V 4 -q 2 -lowpass 17 -b 128

Скриншоты

[Цитировать]



Показать сообщения:    

Текущее время: 10-Дек 17:42

Часовой пояс: UTC + 3


Вы не можете начинать темы
Вы не можете отвечать на сообщения
Вы не можете редактировать свои сообщения
Вы не можете удалять свои сообщения
Вы не можете голосовать в опросах
Вы не можете прикреплять файлы к сообщениям
Вы не можете скачивать файлы

!ВНИМАНИЕ!
Сайт не предоставляет электронные версии произведений, а занимается лишь коллекционированием и каталогизацией ссылок, присылаемых и публикуемых на форуме нашими читателями. Если вы являетесь правообладателем какого-либо представленного материала и не желаете, чтобы ссылка на него находилась в нашем каталоге, свяжитесь с нами, и мы незамедлительно удалим ее. Файлы для обмена на трекере предоставлены пользователями сайта, и администрация не несет ответственности за их содержание. Просьба не заливать файлы, защищенные авторскими правами, а также файлы нелегального содержания!