[ Сегодня идет свободное скачивание без начисления Download ]


Статистика раздачи
Нет
 
   
 
Top  
 
 
Судья Дредд 3D / Dredd 3D«Я – закон»- Год выпуска: 2012
Страна: ЮАР, Великобритания
Производство: DNA Films, IM Global, Reliance Big Entertainment, Reliance Big Pictures
Жанр: фантастика, боевик, триллер, криминал
Режиссер: Пит Трэвис | Pete Travis
В ролях: Карл Урбан, Оливия Тирлби, Лина Хиди, Вуд Харрис, Рэйчел Вуд, Андил Мнгади, Портес Ксандо Стинкамп, Джейсон Коуп, Эмма Бреши, Рэки Айола
Перевод: Профессиональный (полное дублирование) + Оригинал
Субтитры: softsub (SRT) - Русские, АнглийскиеОписание:
Будущее не столь красочно и великолепно, каким его представляют современные люди. Через несколько столетий человечество окажется на грани самоуничтожения, захлёбываясь в кровавых преступлениях, смертельных грехах и беспорядочных убийствах. Старую систему правосудия будет невозможно использовать — анархия, всеобщие беспорядки вынуждают ещё сохранившуюся власть, тем не менее, потерявшую всякий авторитет и легитимность, пойти на отчаянные крайние меры и ввести институт Судей — универсальных полицейских, правоприменителей, а по совместительству — и прокуроров, которые упростили бы весь процесс задержания, следствия и судебных тяжб, совмещая в одном лице все должности блюстителей и защитников правопорядка.
Негодяи, подонки, вконец обнаглевшие и распоясавшиеся преступники и бандитские группировки всё равно не желают сдавать свои упрочившие позиции, опасаясь лишь одного — встречи с легендарным Судьёй Дреддом, пересажавшим или расстрелявшим не одну сотню насильников, террористов и жадных до человеческих страданий маньяков. В то время, как беспорядки и бесчинства бушуют на улицах города, Дредд спешит вернуть порядок, Закон и тишину, которым, кажется, уже никогда не обрести свою былую полноту, мощь и силу…
-[imdb]tt1343727[/imdb] [kp]437678[/kp]
Дата премьеры (мир): 11 июля 2012
Дата премьеры (РФ): 20 сентября 2012, «Централ Партнершип»
Релиз на DVD: 21 января 2013, «Новый Диск»
Релиз на Blu-Ray: 21 января 2013, «Новый Диск»
-Качество: BDRip - AVC | исх. Dredd 2012 Blu-ray 3D 1080p AVC DTS-HD MA 7.1-CHDBits
Продолжительность: 01:35:52
Формат: MKV
Видео кодек: H.264
Аудио кодек: AC3
Видео: 1056x440 (2.40:1), 23,976 fps, H.264 ~2 361 kbps avg, 0.212 bit/pixel
Аудио #1: 48 kHz, AC3, 3/2 (L,C,R,l,r) + LFE ch, ~448.00 kbps avg | Профессиональный (полное дублирование)
Аудио #2: 48 kHz, AC3, 3/2 (L,C,R,l,r) + LFE ch, ~448.00 kbps avg | Оригинал (Английский)

Media Info

General
      Format : Matroska
      File size : 2.18 GiB
      Duration : 1h 35mn
      Overall bit rate : 3 255 Kbps
      Movie name : -=POTROKS=-
      Encoded date : UTC 2013-01-25 16:53:02
      Writing application : mkvmerge v5.7.0 ('The Whirlwind') built on Jul  8 2012 20:08:51
      Writing library : libebml v1.2.3 + libmatroska v1.3.0
   Video #1
      ID : 1
      Format : AVC
      Format/Info : Advanced Video Codec
      Format profile : High@L4.1
      Format settings, CABAC : Yes
      Format settings, ReFrames : 9 frames
      Codec ID : V_MPEG4/ISO/AVC
      Duration : 1h 35mn
      Bit rate : 2 361 Kbps
      Width : 1 056 pixels
      Height : 440 pixels
      Display aspect ratio : 2.40:1
      Frame rate mode : Variable
      Frame rate : 23.976 fps
      Color space : YUV
      Chroma subsampling : 4:2:0
      Bit depth : 8 bits
      Scan type : Progressive
      Bits/(Pixel*Frame) : 0.212
      Stream size : 1.54 GiB (70%)
      Title : Судья Дредд 3D
      Writing library : x264 core 128 r2216M 198a7ea
      Encoding settings : cabac=1 / ref=10 / deblock=1:-2:-1 / analyse=0x3:0x133 / me=umh / subme=11 / psy=1 / psy_rd=1.05:0.00 / mixed_ref=1 / me_range=48 / chroma_me=1 / trellis=2 / 8x8dct=1 / cqm=0 / deadzone=21,11 / fast_pskip=0 / chroma_qp_offset=-2 / threads=4 / lookahead_threads=1 / sliced_threads=0 / nr=0 / decimate=1 / interlaced=0 / bluray_compat=0 / constrained_intra=0 / bframes=12 / b_pyramid=1 / b_adapt=2 / b_bias=0 / direct=3 / weightb=1 / open_gop=0 / weightp=2 / keyint=240 / keyint_min=23 / scenecut=40 / intra_refresh=0 / rc_lookahead=150 / rc=2pass / mbtree=1 / bitrate=2361 / ratetol=1.0 / qcomp=0.70 / qpmin=0 / qpmax=66 / qpstep=4 / cplxblur=20.0 / qblur=0.5 / vbv_maxrate=20000 / vbv_bufsize=25000 / nal_hrd=none / ip_ratio=1.35 / aq=1:0.70
      Language : English
   Audio #2
      ID : 2
      Format : AC-3
      Format/Info : Audio Coding 3
      Mode extension : CM (complete main)
      Codec ID : A_AC3
      Duration : 1h 35mn
      Bit rate mode : Constant
      Bit rate : 448 Kbps
      Channel(s) : 6 channels
      Channel positions : Front: L C R, Side: L R, LFE
      Sampling rate : 48.0 KHz
      Bit depth : 16 bits
      Compression mode : Lossy
      Stream size : 307 MiB (14%)
      Title : Dub | DD 5.1 @ 448 kbps
      Language : Russian
   Audio #3
      ID : 3
      Format : AC-3
      Format/Info : Audio Coding 3
      Mode extension : CM (complete main)
      Codec ID : A_AC3
      Duration : 1h 35mn
      Bit rate mode : Constant
      Bit rate : 448 Kbps
      Channel(s) : 6 channels
      Channel positions : Front: L C R, Side: L R, LFE
      Sampling rate : 48.0 KHz
      Bit depth : 16 bits
      Compression mode : Lossy
      Video delay : 27ms
      Stream size : 307 MiB (14%)
      Title : Original | DD 5.1 @ 448 kbps
      Language : English
   Text #4
      ID : 4
      Format : UTF-8
      Codec ID : S_TEXT/UTF8
      Codec ID/Info : UTF-8 Plain Text
      Language : English
   Text #5
      ID : 5
      Format : UTF-8
      Codec ID : S_TEXT/UTF8
      Codec ID/Info : UTF-8 Plain Text
      Language : Russian

Скриншоты

[Цитировать]



Показать сообщения:    

Текущее время: 09-Дек 05:00

Часовой пояс: UTC + 3


Вы не можете начинать темы
Вы не можете отвечать на сообщения
Вы не можете редактировать свои сообщения
Вы не можете удалять свои сообщения
Вы не можете голосовать в опросах
Вы не можете прикреплять файлы к сообщениям
Вы не можете скачивать файлы

!ВНИМАНИЕ!
Сайт не предоставляет электронные версии произведений, а занимается лишь коллекционированием и каталогизацией ссылок, присылаемых и публикуемых на форуме нашими читателями. Если вы являетесь правообладателем какого-либо представленного материала и не желаете, чтобы ссылка на него находилась в нашем каталоге, свяжитесь с нами, и мы незамедлительно удалим ее. Файлы для обмена на трекере предоставлены пользователями сайта, и администрация не несет ответственности за их содержание. Просьба не заливать файлы, защищенные авторскими правами, а также файлы нелегального содержания!