[ Сегодня идет свободное скачивание без начисления Download ]


Статистика раздачи
Нет
 
   
 
Top  
 
 
Тот, кто меня бережет / Someone to Watch Over Me (1987) WEB-DL 720p Информация о фильме
Название: Тот, кто меня бережет
Оригинальное название: Someone to Watch Over Me
Год выхода: 1987
Жанр: триллер, драма, мелодрама, криминал
Режиссер: Ридли Скотт
В ролях: Том Беренджер, Мими Роджерс, Лоррейн Бракко, Джерри Орбак, Джон Рубинстайн, Андреас Кацулас, Тони ДиБенедетто, Джеймс Э. Мориарти, Марк Мозес, Дэниэл Хью Келли
О фильме:
Полицейский Майк Киган получает задание охранять богатую даму из высшего общества Клэр Грегори, после того как она оказалась свидетелем зверского убийства, и теперь убийца охотится за нею. Киган счастливо женат, его только что повысили до детектива, а тут на него свалилась соблазнительная и притягательная Клэр — он должен быть с ней днем и ночью…

Страна: США
Студия: Columbia Pictures Corporation
Продолжительность: 01:46:31
Перевод: Профессиональный (двухголосый, закадровый) Видеосервис + Профессиональный (многоголосый, закадровый) [пара вставок из Гаврилова] + Авторский (одноголосый, закадровый) А.Гаврилов
Файл
Формат: Matroska
Видео: 1280x718 at 23.976 fps, MPEG-4 AVC, ~4100 kbps avg
Аудио#1: Russian: 48 kHz, AC3, 2/0 (L,R) ch, ~192 kbps avg |Двухголосый закадровый, Видеосервис|
Аудио#2: Russian: 48 kHz, AC3, 2/0 (L,R) ch, ~192 kbps avg |Многоголосый закадровый|
Аудио#3: Russian: 48 kHz, AC3, 2/0 (L,R) ch, ~192 kbps avg |Авторский, А.Гаврилов|
Аудио#4: English: 48 kHz, AAC, 2/0 (L,R) ch, ~160 kbps avg
Субтитры: Russian, English
***Сохранены оригинальные главы.
***Синхронизация звуковых дорожек - clom.

MI

Общее
Уникальный идентификатор : 178961613659824614703975458108694480302 (0x86A2C0C8D2F4027B811CCB249D5E45AE)
Полное имя : Tot.kto.menja.berezhet.1987.WEB-DL.720p.mkv
Формат : Matroska
Версия формата : Version 2
Размер файла : 3,61 Гбайт
Продолжительность : 1 ч. 46 м.
Общий поток : 4855 Кбит/сек
Дата кодирования : UTC 2016-07-10 13:44:14
Программа кодирования : mkvmerge v7.8.0 ('River Man') 32bit built on Apr 3 2015 12:11:22
Библиотека кодирования : libebml v1.3.1 + libmatroska v1.4.2
Attachements : cover.jpg / cover_land.jpg / small_cover.jpg / small_cover_land.jpg
Видео
Идентификатор : 1
Формат : AVC
Формат/Информация : Advanced Video Codec
Профиль формата : High@L3.1
Параметр CABAC формата : Нет
Параметр ReFrames формата : 2 кадра
Идентификатор кодека : V_MPEG4/ISO/AVC
Продолжительность : 1 ч. 46 м.
Ширина : 1280 пикселей
Высота : 718 пикселей
Соотношение сторон : 16:9
Режим частоты кадров : Постоянный
Частота кадров : 23,976 кадра/сек
Цветовое пространство : YUV
Субдискретизация насыщенности : 4:2:0
Битовая глубина : 8 бит
Тип развёртки : Прогрессивная
Заголовок : Someone.to.Watch.Over.Me.1987.720p.WEB-DL.AAC2.0.H264-FGT
Язык : English
Default : Да
Forced : Нет
Цветовой диапазон : Limited
Основные цвета : BT.709
Характеристики трансфера : BT.709
Коэффициенты матрицы : BT.709
Аудио #1
Идентификатор : 2
Формат : AC-3
Формат/Информация : Audio Coding 3
Расширение режима : CM (complete main)
Параметр Endianness формата : Big
Идентификатор кодека : A_AC3
Продолжительность : 1 ч. 46 м.
Вид битрейта : Постоянный
Битрейт : 192 Кбит/сек
Каналы : 2 канала
Расположение каналов : Front: L R
Частота : 48,0 КГц
Метод сжатия : С потерями
Задержка видео : 24 мс.
Размер потока : 146 Мбайт (4%)
Заголовок : ПД (Видеосервис)
Язык : Russian
Default : Да
Forced : Да
Аудио #2
Идентификатор : 3
Формат : AC-3
Формат/Информация : Audio Coding 3
Расширение режима : CM (complete main)
Параметр Endianness формата : Big
Идентификатор кодека : A_AC3
Продолжительность : 1 ч. 46 м.
Вид битрейта : Постоянный
Битрейт : 192 Кбит/сек
Каналы : 2 канала
Расположение каналов : Front: L R
Частота : 48,0 КГц
Метод сжатия : С потерями
Задержка видео : 24 мс.
Размер потока : 146 Мбайт (4%)
Заголовок : ПМ
Язык : Russian
Default : Нет
Forced : Да
Аудио #3
Идентификатор : 4
Формат : AC-3
Формат/Информация : Audio Coding 3
Расширение режима : CM (complete main)
Параметр Endianness формата : Big
Идентификатор кодека : A_AC3
Продолжительность : 1 ч. 46 м.
Вид битрейта : Постоянный
Битрейт : 192 Кбит/сек
Каналы : 2 канала
Расположение каналов : Front: L R
Частота : 48,0 КГц
Метод сжатия : С потерями
Задержка видео : 24 мс.
Размер потока : 146 Мбайт (4%)
Заголовок : АП (Гаврилов)
Язык : Russian
Default : Нет
Forced : Да
Аудио #4
Идентификатор : 5
Формат : AAC
Формат/Информация : Advanced Audio Codec
Профиль формата : LC
Идентификатор кодека : A_AAC
Продолжительность : 1 ч. 46 м.
Каналы : 2 канала
Расположение каналов : Front: L R
Частота : 48,0 КГц
Метод сжатия : С потерями
Заголовок : Original
Язык : English
Default : Нет
Forced : Нет
Текст #1
Идентификатор : 6
Формат : UTF-8
Идентификатор кодека : S_TEXT/UTF8
Идентификатор кодека/Информация : UTF-8 Plain Text
Заголовок : Sub
Язык : Russian
Default : Нет
Forced : Нет
Текст #2
Идентификатор : 7
Формат : UTF-8
Идентификатор кодека : S_TEXT/UTF8
Идентификатор кодека/Информация : UTF-8 Plain Text
Заголовок : Sub
Язык : English
Default : Нет
Forced : Нет
Меню
00:00:00.000 : en:Someone To Watch Over Me
00:02:56.000 : en:Party In Queens
00:06:27.000 : en:Party In Manhattan
00:10:08.000 : en:Wrong Place And Time
00:12:15.000 : en:First Assignment
00:19:37.000 : en:Claire's Apartment
00:23:22.000 : en:First Shift
00:29:14.000 : en:"I Have To Go Out."
00:32:13.000 : en:Shopping For A Tie
00:33:13.000 : en:The Guggenheim
00:36:39.000 : en:The Ladie's Room
00:38:27.000 : en:Pursuing Venza
00:42:27.000 : en:Just Checking
00:45:28.000 : en:Cocktails
00:50:57.000 : en:The Line-up
00:52:12.000 : en:"Venza's Out."
00:54:59.000 : en:Comforting Claire
00:57:22.000 : en:"Somebody's Outside."
01:06:14.000 : en:An Early Dinner
01:09:40.000 : en:The Jogger
01:13:27.000 : en:Watching Over Mike
01:15:03.000 : en:The Hitman
01:20:26.000 : en:Suspended
01:24:47.000 : en:Checking In
01:28:32.000 : en:Anniversary Dinner
01:32:01.000 : en:Venza Calls
01:34:01.000 : en:At Mike's House
01:38:48.000 : en:A Cop's Daughter

Скриншоты

[Цитировать]



Показать сообщения:    

Текущее время: 09-Дек 01:07

Часовой пояс: UTC + 3


Вы не можете начинать темы
Вы не можете отвечать на сообщения
Вы не можете редактировать свои сообщения
Вы не можете удалять свои сообщения
Вы не можете голосовать в опросах
Вы не можете прикреплять файлы к сообщениям
Вы не можете скачивать файлы

!ВНИМАНИЕ!
Сайт не предоставляет электронные версии произведений, а занимается лишь коллекционированием и каталогизацией ссылок, присылаемых и публикуемых на форуме нашими читателями. Если вы являетесь правообладателем какого-либо представленного материала и не желаете, чтобы ссылка на него находилась в нашем каталоге, свяжитесь с нами, и мы незамедлительно удалим ее. Файлы для обмена на трекере предоставлены пользователями сайта, и администрация не несет ответственности за их содержание. Просьба не заливать файлы, защищенные авторскими правами, а также файлы нелегального содержания!