[ Сегодня идет свободное скачивание без начисления Download ]


Статистика раздачи
Скачал: [ 1 ]
 
   
 
Top  
 
 
Соло / Solo (1996) DVDRip-AVC Информация о фильме
Название: Соло
Оригинальное название: Solo
Год выхода: 1996
Жанр: фантастика, боевик, триллер
Режиссер: Норберто Барба
В ролях: Марио Ван Пиблз, Бэрри Корбин, Уильям Сэдлер, Хайме Гомес, Демиан Бишир, Сейди Лопез, Абрахам Вердуско, Хоакин Гарридо, Уильям Уоллес, Эдриан Броуди и др.
О фильме:
Он — универсальный солдат, способный сражаться и побеждать в любых условиях. У него нет семьи, нет друзей. Он похож на человека, но сделан из полимеров и микросхем. Он — Соло, машина единственной программой — убивать.
Но программа дает сбой. Соло начинает думать как человек. У него появляются человеческие чувства и друзья. Но жестокие военные, создавшие. Соло, объявляют на него охоту. И Соло начинает беспощадную войну.


Страна: Мексика, США
Продолжительность: 01:30:02
Перевод: Профессиональный (многоголосый закадровый)
Файл
Кодек: h.264
Качество: DVDRip-AVC
Видео: MPEG-4, 720x574 @1024x574, 25.000 fps ~1924 kbps
Звук:
1) 48 KHz, AC3, 2 ch ~192 Kbps - MVO
2) 48 KHz, AC3, 2 ch ~192 Kbps - Original
Субтитры: Русские, английские
Media Info:

Скрытый текст

General
Unique ID : 193614095320363540322625568126265791214 (0x91A8B7E7F7AE9A3096C3424EAD2912EE)Format : Matroska
Format version : Version 4 / Version 2
File size : 1.45 GiB
Duration : 1h 30mn
Overall bit rate : 2 312 Kbps
Movie name : Solo (1996)
Encoded date : UTC 2016-07-10 09:33:20 / UTC
Writing application : mkvmerge v9.1.0 ('Little Earthquakes') 64bit
Writing library : libebml v1.3.3 + libmatroska v1.4.4 / Lavf55.12.0
Cover : Yes
Attachments : Cover.jpg
Video
ID : 1
Format : AVC
Format/Info : Advanced Video Codec
Format profile : High@L4.1
Format settings, CABAC : Yes
Format settings, ReFrames : 12 frames
Codec ID : V_MPEG4/ISO/AVC
Duration : 1h 30mn
Bit rate : 1 924 Kbps
Width : 720 pixels
Height : 574 pixels
Display aspect ratio : 16:9
Frame rate mode : Constant
Frame rate : 25.000 fps
Color space : YUV
Chroma subsampling : 4:2:0
Bit depth : 8 bits
Scan type : Progressive
Bits/(Pixel*Frame) : 0.186
Stream size : 1.18 GiB (81%)
Title : MPEG-4, 720x574 @1024x574, 25.000 fps ~1924 kbps
Writing library : x264 core 142 r2479 dd79a61
Encoding settings : cabac=1 / ref=12 / deblock=1:-2:-2 / analyse=0x3:0x133 / me=umh / subme=11 / psy=1 / psy_rd=1.00:0.10 / mixed_ref=1 / me_range=32 / chroma_me=1 / trellis=2 / 8x8dct=1 / cqm=0 / deadzone=21,11 / fast_pskip=0 / chroma_qp_offset=-3 / threads=6 / lookahead_threads=1 / sliced_threads=0 / nr=0 / decimate=1 / interlaced=0 / bluray_compat=0 / constrained_intra=0 / bframes=16 / b_pyramid=2 / b_adapt=2 / b_bias=0 / direct=3 / weightb=1 / open_gop=0 / weightp=2 / keyint=250 / keyint_min=25 / scenecut=40 / intra_refresh=0 / rc_lookahead=60 / rc=2pass / mbtree=0 / bitrate=1924 / ratetol=1.0 / qcomp=0.60 / qpmin=0 / qpmax=69 / qpstep=4 / cplxblur=20.0 / qblur=0.5 / vbv_maxrate=62500 / vbv_bufsize=78125 / nal_hrd=none / filler=0 / ip_ratio=1.40 / pb_ratio=1.30 / aq=1:1.00
Language : English
Default : Yes
Forced : No
Color range : Limited
Color primaries : BT.601 PAL
Transfer characteristics : BT.709
Matrix coefficients : BT.601
Statistics Tags Issue : mkvmerge v9.1.0 ('Little Earthquakes') 64bit 2016-07-10 09:33:20 / mkvmerge v9.1.0 ('Little Earthquakes') 64bit 2016-07-10 09:33:20 / UTC
FromStats_BitRate : 1923296
FromStats_Duration : 01:30:02.880000000
FromStats_FrameCount : 135072
FromStats_StreamSize : 1298917552
Audio #1
ID : 2
Format : AC-3
Format/Info : Audio Coding 3
Format profile : Dolby Digital
Mode extension : CM (complete main)
Format settings, Endianness : Big
Codec ID : A_AC3
Duration : 1h 30mn
Bit rate mode : Constant
Bit rate : 192 Kbps
Channel(s) : 2 channels
Channel positions : Front: L R
Sampling rate : 48.0 KHz
Frame rate : 31.250 fps (1536 spf)
Compression mode : Lossy
Delay relative to video : -5ms
Stream size : 124 MiB (8%)
Title : 48 KHz, AC3, 2 ch ~192 Kbps - MVO
Language : Russian
Default : Yes
Forced : No
Statistics Tags Issue : mkvmerge v9.1.0 ('Little Earthquakes') 64bit 2016-07-10 09:33:20 / mkvmerge v9.1.0 ('Little Earthquakes') 64bit 2016-07-10 09:33:20 / UTC
FromStats_BitRate : 192000
FromStats_Duration : 01:30:02.848000000
FromStats_FrameCount : 168839
FromStats_StreamSize : 129668352
Audio #2
ID : 3
Format : AC-3
Format/Info : Audio Coding 3
Format profile : Dolby Digital
Mode extension : CM (complete main)
Format settings, Endianness : Big
Codec ID : A_AC3
Duration : 1h 30mn
Bit rate mode : Constant
Bit rate : 192 Kbps
Channel(s) : 2 channels
Channel positions : Front: L R
Sampling rate : 48.0 KHz
Frame rate : 31.250 fps (1536 spf)
Compression mode : Lossy
Delay relative to video : -5ms
Stream size : 124 MiB (8%)
Title : 48 KHz, AC3, 2 ch ~192 Kbps - Original
Language : English
Default : No
Forced : No
Statistics Tags Issue : mkvmerge v9.1.0 ('Little Earthquakes') 64bit 2016-07-10 09:33:20 / mkvmerge v9.1.0 ('Little Earthquakes') 64bit 2016-07-10 09:33:20 / UTC
FromStats_BitRate : 192000
FromStats_Duration : 01:30:02.848000000
FromStats_FrameCount : 168839
FromStats_StreamSize : 129668352
Text #1
ID : 4
Format : VobSub
Muxing mode : zlib
Codec ID : S_VOBSUB
Codec ID/Info : Picture based subtitle format used on DVDs
Language : English
Default : No
Forced : No
Statistics Tags Issue : mkvmerge v9.1.0 ('Little Earthquakes') 64bit 2016-07-10 09:33:20 / mkvmerge v9.1.0 ('Little Earthquakes') 64bit 2016-07-10 09:33:20 / UTC
FromStats_BitRate : 1339
FromStats_Duration : 01:25:35.630000000
FromStats_FrameCount : 477
FromStats_StreamSize : 860087
Text #2
ID : 5
Format : VobSub
Muxing mode : zlib
Codec ID : S_VOBSUB
Codec ID/Info : Picture based subtitle format used on DVDs
Language : Russian
Default : No
Forced : No
Statistics Tags Issue : mkvmerge v9.1.0 ('Little Earthquakes') 64bit 2016-07-10 09:33:20 / mkvmerge v9.1.0 ('Little Earthquakes') 64bit 2016-07-10 09:33:20 / UTC
FromStats_BitRate : 1344
FromStats_Duration : 01:26:24.589000000
FromStats_FrameCount : 529
FromStats_StreamSize : 871083
Menu
00:00:00.000 : :Chapter 1
00:08:17.520 : :Chapter 2
00:14:08.720 : :Chapter 3
00:21:12.240 : :Chapter 4
00:23:05.840 : :Chapter 5
00:27:28.560 : :Chapter 6
00:30:22.000 : :Chapter 7
00:35:55.920 : :Chapter 8
00:38:14.320 : :Chapter 9
00:44:30.960 : :Chapter 10
00:46:04.800 : :Chapter 11
00:48:08.960 : :Chapter 12
00:49:05.600 : :Chapter 13
00:51:55.680 : :Chapter 14
00:53:05.920 : :Chapter 15
00:54:13.440 : :Chapter 16
00:59:26.240 : :Chapter 17
01:01:12.640 : :Chapter 18
01:06:58.720 : :Chapter 19
01:08:37.760 : :Chapter 20
01:10:28.000 : :Chapter 21
01:11:00.480 : :Chapter 22
01:14:00.000 : :Chapter 23
01:14:47.840 : :Chapter 24
01:16:50.080 : :Chapter 25
01:19:06.880 : :Chapter 26
01:22:27.840 : :Chapter 27
01:25:20.480 : :Chapter 28

Скриншоты

[Цитировать]



Показать сообщения:    

Текущее время: 08-Дек 03:15

Часовой пояс: UTC + 3


Вы не можете начинать темы
Вы не можете отвечать на сообщения
Вы не можете редактировать свои сообщения
Вы не можете удалять свои сообщения
Вы не можете голосовать в опросах
Вы не можете прикреплять файлы к сообщениям
Вы не можете скачивать файлы

!ВНИМАНИЕ!
Сайт не предоставляет электронные версии произведений, а занимается лишь коллекционированием и каталогизацией ссылок, присылаемых и публикуемых на форуме нашими читателями. Если вы являетесь правообладателем какого-либо представленного материала и не желаете, чтобы ссылка на него находилась в нашем каталоге, свяжитесь с нами, и мы незамедлительно удалим ее. Файлы для обмена на трекере предоставлены пользователями сайта, и администрация не несет ответственности за их содержание. Просьба не заливать файлы, защищенные авторскими правами, а также файлы нелегального содержания!