[ Сегодня идет свободное скачивание без начисления Download ]


Статистика раздачи
Нет
 
   
 
Top  
 
 
Кловерфилд, 10 / 10 Cloverfield Lane (2016)- Информация о фильме
Русское название: Кловерфилд, 10
Оригинальное название: 10 Cloverfield Lane
Год выхода: 2016
Жанр: ужасы, фантастика, триллер, драма, детектив
Режиссер: Дэн Трактенберг
Выпущено: США
Продолжительность: 01:43:34
Перевод: Дублированный
В ролях: Джон Гудман, Мэри Элизабет Уинстэд, Джон Галлахер мл., Дуглас М. Гриффин, Сюзанн Крайер, Брэдли Купер, Сумали Монтано, Фрэнк Моттек-Сюжет фильма
Проснувшись после автомобильной аварии, девушка оказывается в подвале человека, утверждающего, что он спас ей жизнь от химической атаки, которая сделала мир за пределами бункера непригодным для жизни.-Файл
Качество: BDRip 1080p (исходник Blu-ray Disc CEE 1080)
Формат: MKV
Видео: 1920x800, 9441 Кбит/сек, 23,976 кадр/сек, AVC, x264, High@L4.1, 2.40:1, 0.256 Бит/[Пиксели*Кадры]
Аудио 1: AC-3, 640 Кбит/сек, 6 канала(ов), 48,0 КГц - Дублированный / Русский
Аудио 2: AC-3, 640 Кбит/сек, 6 канала(ов), 48,0 КГц - Оригинал / Английский
Субтитры: Английские | Полные
Форсированные субтитры: Русские
Чаптеры (Главы): Есть-
Автор Рипа: Группа: мы в VK-

Скриншоты:

Media info:

Format : Matroska
Format version : Version 2
File size : 7.74 GiB
Duration : 1h 43mn
Overall bit rate : 10.7 Mbps
Movie name : 10.Cloverfield.Lane.(2016).BDRip.1080p.[envy]
Encoded date : UTC 2016-07-11 08:40:19
Writing application : mkvmerge v5.8.0 ('No Sleep / Pillow') built on Sep 2 2012 15:37:04
Writing library : libebml v1.2.3 + libmatroska v1.3.0
Video
ID : 1
Format : AVC
Format/Info : Advanced Video Codec
Format profile : High@L4.1
Format settings, CABAC : Yes
Format settings, ReFrames : 5 frames
Codec ID : V_MPEG4/ISO/AVC
Duration : 1h 43mn
Bit rate : 9 441 Kbps
Width : 1 920 pixels
Height : 800 pixels
Display aspect ratio : 2.40:1
Frame rate mode : Constant
Frame rate : 23.976 (24000/1001) fps
Color space : YUV
Chroma subsampling : 4:2:0
Bit depth : 8 bits
Scan type : Progressive
Bits/(Pixel*Frame) : 0.256
Stream size : 6.66 GiB (86%)
Title : 10.Cloverfield.Lane.(2016).BDRip.1080p.[envy]
Writing library : x264 core 148 r2692 64f4e24
Encoding settings : cabac=1 / ref=5 / deblock=1:-3:-3 / analyse=0x3:0x113 / me=umh / subme=11 / psy=1 / psy_rd=1.00:0.00 / mixed_ref=1 / me_range=32 / chroma_me=1 / trellis=2 / 8x8dct=1 / cqm=0 / deadzone=21,11 / fast_pskip=0 / chroma_qp_offset=-2 / threads=12 / lookahead_threads=2 / sliced_threads=0 / nr=0 / decimate=1 / interlaced=0 / bluray_compat=0 / constrained_intra=0 / bframes=7 / b_pyramid=2 / b_adapt=2 / b_bias=0 / direct=3 / weightb=1 / open_gop=0 / weightp=2 / keyint=240 / keyint_min=23 / scenecut=40 / intra_refresh=0 / rc=2pass / mbtree=0 / bitrate=9441 / ratetol=2.0 / qcomp=0.60 / qpmin=0 / qpmax=69 / qpstep=4 / cplxblur=20.0 / qblur=0.5 / ip_ratio=1.40 / pb_ratio=1.30 / aq=2:0.80
Language : English
Default : Yes
Forced : No
Audio #1
ID : 2
Format : AC-3
Format/Info : Audio Coding 3
Mode extension : CM (complete main)
Format settings, Endianness : Big
Codec ID : A_AC3
Duration : 1h 43mn
Bit rate mode : Constant
Bit rate : 640 Kbps
Channel(s) : 6 channels
Channel positions : Front: L C R, Side: L R, LFE
Sampling rate : 48.0 KHz
Frame rate : 31.250 fps (1536 spf)
Compression mode : Lossy
Stream size : 474 MiB (6%)
Title : Dub
Language : Russian
Default : Yes
Forced : No
Audio #2
ID : 3
Format : AC-3
Format/Info : Audio Coding 3
Mode extension : CM (complete main)
Format settings, Endianness : Big
Codec ID : A_AC3
Duration : 1h 43mn
Bit rate mode : Constant
Bit rate : 640 Kbps
Channel(s) : 6 channels
Channel positions : Front: L C R, Side: L R, LFE
Sampling rate : 48.0 KHz
Frame rate : 31.250 fps (1536 spf)
Compression mode : Lossy
Stream size : 474 MiB (6%)
Title : Eng
Language : English
Default : No
Forced : No
Text #1
ID : 4
Format : UTF-8
Codec ID : S_TEXT/UTF8
Codec ID/Info : UTF-8 Plain Text
Title : Rus forced
Language : Russian
Default : Yes
Forced : Yes
Text #2
ID : 5
Format : UTF-8
Codec ID : S_TEXT/UTF8
Codec ID/Info : UTF-8 Plain Text
Title : Rus full
Language : Russian
Default : No
Forced : No
Text #3
ID : 6
Format : UTF-8
Codec ID : S_TEXT/UTF8
Codec ID/Info : UTF-8 Plain Text
Title : Eng full
Language : English
Default : No
Forced : No
Menu
00:00:00.000 : :Chapter 01
00:05:55.605 : :Chapter 02
00:14:52.516 : :Chapter 03
00:19:18.157 : :Chapter 04
00:24:11.992 : :Chapter 05
00:32:21.940 : :Chapter 06
00:42:59.243 : :Chapter 07
00:47:47.739 : :Chapter 08
00:53:37.088 : :Chapter 09
00:57:00.625 : :Chapter 10
01:03:10.745 : :Chapter 11
01:11:20.192 : :Chapter 12
01:15:49.419 : :Chapter 13
01:24:21.264 : :Chapter 14
01:28:19.085 : :Chapter 15
01:37:31.512 : :Chapter 16
-

[Цитировать]



Показать сообщения:    

Текущее время: 10-Дек 00:23

Часовой пояс: UTC + 3


Вы не можете начинать темы
Вы не можете отвечать на сообщения
Вы не можете редактировать свои сообщения
Вы не можете удалять свои сообщения
Вы не можете голосовать в опросах
Вы не можете прикреплять файлы к сообщениям
Вы не можете скачивать файлы

!ВНИМАНИЕ!
Сайт не предоставляет электронные версии произведений, а занимается лишь коллекционированием и каталогизацией ссылок, присылаемых и публикуемых на форуме нашими читателями. Если вы являетесь правообладателем какого-либо представленного материала и не желаете, чтобы ссылка на него находилась в нашем каталоге, свяжитесь с нами, и мы незамедлительно удалим ее. Файлы для обмена на трекере предоставлены пользователями сайта, и администрация не несет ответственности за их содержание. Просьба не заливать файлы, защищенные авторскими правами, а также файлы нелегального содержания!