[ Сегодня идет свободное скачивание без начисления Download ]


Статистика раздачи
Нет
 
   
 
Top  
 
 
Пятница 13-е / Friday the 13th (2009) BDRip-AVC Информация о фильме
Название: Пятница 13-е
Оригинальное название: Friday the 13th
Год выхода: 2009
Жанр: ужасы
Режиссер: Маркус Ниспел
В ролях: Джаред Падалеки, Даниэль Панабэйкер, Аманда Ригетти, Трэвис Ван Винкль , Дерек Мирс, Аарон Йоо и др.
О фильме:
Молодые друзья Уитни, Майк, Ричи, Аманда и Уэйд заблудились в лесах около заброшенного лагеря «Хрустальное озеро». Когда их любопытство взяло верх, они решили посетить то место, где когда-то обитал убийца-психопат. Тем временем Трент приглашает друзей: Джену, Брии, Чеви, Челси, Лоуренса и Нолана в его хижину, расположенную у озера, на уикэнд, полный секса, выпивки и наркотиков.
Однако их забавный уикэнд, по-видимому, скоро перерастет в кошмар после того, как одинокий путешественник Клэй начинает поиски своей пропавшей сестры Уитни, и молодые тинейджеры вскоре оказываются лицом к лицу со злом, заново рожденным, невообразимым, и усовершенствованным, его имя Джейсон Вурхиз!


Страна: США
Продолжительность: 01:45:30
Перевод: Дубляж, двухголосный, авторский.
Файл
Кодек: h.264
Качество: BDRip-AVC
Видео: MPEG-4, 1080x450, 23.976 fps ~2184 kbps
Звук:
1) 48 KHz, AC3, 2 ch ~192 Kbps - Dub
2) 48 KHz, AC3, 2 ch ~192 Kbps - DVO [SDI Media Latvia]
3) 48 KHz, AC3, 2 ch ~192 Kbps - AVO [Горчаков]
4) 48 KHz, AC3, 2 ch ~192 Kbps - Original
Примечание: В дорожке дубляжа присутствуют моменты без перевода!
Субтитры: Русские, английские
Media Info:

Скрытый текст

General
Unique ID : 200585710179497452933886077942682212380 (0x96E7670E816CC82980DB534323D5D81C)Format : Matroska
Format version : Version 4 / Version 2
File size : 2.20 GiB
Duration : 1h 45mn
Overall bit rate : 2 983 Kbps
Movie name : Friday the 13th (2009) Extended Cut
Encoded date : UTC 2016-07-11 11:39:03 / UTC
Writing application : mkvmerge v9.1.0 ('Little Earthquakes') 64bit
Writing library : libebml v1.3.3 + libmatroska v1.4.4 / Lavf55.12.0
Cover : Yes
Attachments : Cover.jpg
Video
ID : 1
Format : AVC
Format/Info : Advanced Video Codec
Format profile : [email protected]
Format settings, CABAC : Yes
Format settings, ReFrames : 12 frames
Codec ID : V_MPEG4/ISO/AVC
Duration : 1h 45mn
Bit rate : 2 184 Kbps
Width : 1 080 pixels
Height : 450 pixels
Display aspect ratio : 2.40:1
Frame rate mode : Constant
Frame rate : 23.976 (24000/1001) fps
Color space : YUV
Chroma subsampling : 4:2:0
Bit depth : 8 bits
Scan type : Progressive
Bits/(Pixel*Frame) : 0.187
Stream size : 1.59 GiB (72%)
Title : MPEG-4, 1080x450, 23.976 fps ~2184 kbps
Writing library : x264 core 142 r2479 dd79a61
Encoding settings : cabac=1 / ref=12 / deblock=1:-2:-2 / analyse=0x3:0x133 / me=umh / subme=11 / psy=1 / psy_rd=1.00:0.05 / mixed_ref=1 / me_range=32 / chroma_me=1 / trellis=2 / 8x8dct=1 / cqm=0 / deadzone=21,11 / fast_pskip=0 / chroma_qp_offset=-3 / threads=6 / lookahead_threads=1 / sliced_threads=0 / nr=0 / decimate=1 / interlaced=0 / bluray_compat=0 / constrained_intra=0 / bframes=16 / b_pyramid=2 / b_adapt=2 / b_bias=0 / direct=3 / weightb=1 / open_gop=0 / weightp=2 / keyint=240 / keyint_min=24 / scenecut=40 / intra_refresh=0 / rc_lookahead=60 / rc=2pass / mbtree=0 / bitrate=2184 / ratetol=1.0 / qcomp=0.60 / qpmin=0 / qpmax=69 / qpstep=4 / cplxblur=20.0 / qblur=0.5 / vbv_maxrate=62500 / vbv_bufsize=78125 / nal_hrd=none / filler=0 / ip_ratio=1.40 / pb_ratio=1.30 / aq=1:1.00
Language : English
Default : Yes
Forced : No
Color range : Limited
Color primaries : BT.709
Transfer characteristics : BT.709
Matrix coefficients : BT.709
Statistics Tags Issue : mkvmerge v9.1.0 ('Little Earthquakes') 64bit 2016-07-11 11:39:03 / mkvmerge v9.1.0 ('Little Earthquakes') 64bit 2016-07-11 11:39:03 / UTC
FromStats_BitRate : 2183265
FromStats_Duration : 01:45:30.491000000
FromStats_FrameCount : 151780
FromStats_StreamSize : 1727643189
Audio #1
ID : 2
Format : AC-3
Format/Info : Audio Coding 3
Format profile : Dolby Digital
Mode extension : CM (complete main)
Format settings, Endianness : Big
Codec ID : A_AC3
Duration : 1h 45mn
Bit rate mode : Constant
Bit rate : 192 Kbps
Channel(s) : 2 channels
Channel positions : Front: L R
Sampling rate : 48.0 KHz
Frame rate : 31.250 fps (1536 spf)
Compression mode : Lossy
Delay relative to video : -5ms
Stream size : 145 MiB (6%)
Title : 48 KHz, AC3, 2 ch ~192 Kbps - Dub
Language : Russian
Default : Yes
Forced : No
Statistics Tags Issue : mkvmerge v9.1.0 ('Little Earthquakes') 64bit 2016-07-11 11:39:03 / mkvmerge v9.1.0 ('Little Earthquakes') 64bit 2016-07-11 11:39:03 / UTC
FromStats_BitRate : 192000
FromStats_Duration : 01:45:30.464000000
FromStats_FrameCount : 197827
FromStats_StreamSize : 151931136
Audio #2
ID : 3
Format : AC-3
Format/Info : Audio Coding 3
Mode extension : CM (complete main)
Format settings, Endianness : Big
Codec ID : A_AC3
Duration : 1h 45mn
Bit rate mode : Constant
Bit rate : 192 Kbps
Channel(s) : 2 channels
Channel positions : Front: L R
Sampling rate : 48.0 KHz
Frame rate : 31.250 fps (1536 spf)
Compression mode : Lossy
Delay relative to video : -83ms
Stream size : 145 MiB (6%)
Title : 48 KHz, AC3, 2 ch ~192 Kbps - DVO [SDI Media Latvia]
Language : Russian
Default : No
Forced : No
Statistics Tags Issue : mkvmerge v9.1.0 ('Little Earthquakes') 64bit 2016-07-11 11:39:03 / mkvmerge v9.1.0 ('Little Earthquakes') 64bit 2016-07-11 11:39:03 / UTC
FromStats_BitRate : 192000
FromStats_Duration : 01:45:30.464000000
FromStats_FrameCount : 197827
FromStats_StreamSize : 151931136
Audio #3
ID : 4
Format : AC-3
Format/Info : Audio Coding 3
Mode extension : CM (complete main)
Format settings, Endianness : Big
Codec ID : A_AC3
Duration : 1h 45mn
Bit rate mode : Constant
Bit rate : 192 Kbps
Channel(s) : 2 channels
Channel positions : Front: L R
Sampling rate : 48.0 KHz
Frame rate : 31.250 fps (1536 spf)
Compression mode : Lossy
Delay relative to video : -83ms
Stream size : 145 MiB (6%)
Title : 48 KHz, AC3, 2 ch ~192 Kbps - AVO [Горчаков]
Language : Russian
Default : No
Forced : No
Statistics Tags Issue : mkvmerge v9.1.0 ('Little Earthquakes') 64bit 2016-07-11 11:39:03 / mkvmerge v9.1.0 ('Little Earthquakes') 64bit 2016-07-11 11:39:03 / UTC
FromStats_BitRate : 192000
FromStats_Duration : 01:45:30.464000000
FromStats_FrameCount : 197827
FromStats_StreamSize : 151931136
Audio #4
ID : 5
Format : AC-3
Format/Info : Audio Coding 3
Format profile : Dolby Digital
Mode extension : CM (complete main)
Format settings, Endianness : Big
Codec ID : A_AC3
Duration : 1h 45mn
Bit rate mode : Constant
Bit rate : 192 Kbps
Channel(s) : 2 channels
Channel positions : Front: L R
Sampling rate : 48.0 KHz
Frame rate : 31.250 fps (1536 spf)
Compression mode : Lossy
Delay relative to video : -5ms
Stream size : 145 MiB (6%)
Title : 48 KHz, AC3, 2 ch ~192 Kbps - Original
Language : English
Default : No
Forced : No
Statistics Tags Issue : mkvmerge v9.1.0 ('Little Earthquakes') 64bit 2016-07-11 11:39:03 / mkvmerge v9.1.0 ('Little Earthquakes') 64bit 2016-07-11 11:39:03 / UTC
FromStats_BitRate : 192000
FromStats_Duration : 01:45:30.432000000
FromStats_FrameCount : 197826
FromStats_StreamSize : 151930368
Text #1
ID : 6
Format : PGS
Muxing mode : zlib
Codec ID : S_HDMV/PGS
Codec ID/Info : Picture based subtitle format used on BDs/HD-DVDs
Language : Russian
Default : No
Forced : No
Statistics Tags Issue : mkvmerge v9.1.0 ('Little Earthquakes') 64bit 2016-07-11 11:39:03 / mkvmerge v9.1.0 ('Little Earthquakes') 64bit 2016-07-11 11:39:03 / UTC
FromStats_BitRate : 149
FromStats_Duration : 00:11:18.553000000
FromStats_FrameCount : 10
FromStats_StreamSize : 12719
Text #2
ID : 7
Format : PGS
Muxing mode : zlib
Codec ID : S_HDMV/PGS
Codec ID/Info : Picture based subtitle format used on BDs/HD-DVDs
Language : Russian
Default : No
Forced : No
Statistics Tags Issue : mkvmerge v9.1.0 ('Little Earthquakes') 64bit 2016-07-11 11:39:03 / mkvmerge v9.1.0 ('Little Earthquakes') 64bit 2016-07-11 11:39:03 / UTC
FromStats_BitRate : 4489
FromStats_Duration : 01:36:05.140000000
FromStats_FrameCount : 1780
FromStats_StreamSize : 3235636
Text #3
ID : 8
Format : PGS
Muxing mode : zlib
Codec ID : S_HDMV/PGS
Codec ID/Info : Picture based subtitle format used on BDs/HD-DVDs
Language : English
Default : No
Forced : No
Statistics Tags Issue : mkvmerge v9.1.0 ('Little Earthquakes') 64bit 2016-07-11 11:39:03 / mkvmerge v9.1.0 ('Little Earthquakes') 64bit 2016-07-11 11:39:03 / UTC
FromStats_BitRate : 9325
FromStats_Duration : 01:44:13.998000000
FromStats_FrameCount : 1960
FromStats_StreamSize : 7290281
Text #4
ID : 9
Format : PGS
Muxing mode : zlib
Codec ID : S_HDMV/PGS
Codec ID/Info : Picture based subtitle format used on BDs/HD-DVDs
Language : English
Default : No
Forced : No
Statistics Tags Issue : mkvmerge v9.1.0 ('Little Earthquakes') 64bit 2016-07-11 11:39:03 / mkvmerge v9.1.0 ('Little Earthquakes') 64bit 2016-07-11 11:39:03 / UTC
FromStats_BitRate : 16016
FromStats_Duration : 01:45:14.892000000
FromStats_FrameCount : 2620
FromStats_StreamSize : 12642779
Menu
00:00:00.000 : :Chapter 1
00:03:34.964 : :Chapter 2
00:08:20.666 : :Chapter 3
00:12:16.277 : :Chapter 4
00:15:27.927 : :Chapter 5
00:19:46.769 : :Chapter 6
00:23:50.554 : :Chapter 7
00:28:50.061 : :Chapter 8
00:32:41.292 : :Chapter 9
00:37:18.820 : :Chapter 10
00:39:38.084 : :Chapter 11
00:43:32.943 : :Chapter 12
00:49:36.890 : :Chapter 13
00:53:53.313 : :Chapter 14
01:01:02.075 : :Chapter 15
01:04:50.094 : :Chapter 16
01:08:27.603 : :Chapter 17
01:11:03.133 : :Chapter 18
01:16:08.897 : :Chapter 19
01:19:39.107 : :Chapter 20
01:22:19.392 : :Chapter 21
01:24:50.794 : :Chapter 22
01:29:54.389 : :Chapter 23
01:33:36.944 : :Chapter 24
01:37:45.609 : :Chapter 25
01:39:49.066 : :Chapter 26
01:45:29.448 : :Chapter 27

Скриншоты

[Цитировать]



Показать сообщения:    

Текущее время: 04-Дек 23:19

Часовой пояс: UTC + 3


Вы не можете начинать темы
Вы не можете отвечать на сообщения
Вы не можете редактировать свои сообщения
Вы не можете удалять свои сообщения
Вы не можете голосовать в опросах
Вы не можете прикреплять файлы к сообщениям
Вы не можете скачивать файлы

!ВНИМАНИЕ!
Сайт не предоставляет электронные версии произведений, а занимается лишь коллекционированием и каталогизацией ссылок, присылаемых и публикуемых на форуме нашими читателями. Если вы являетесь правообладателем какого-либо представленного материала и не желаете, чтобы ссылка на него находилась в нашем каталоге, свяжитесь с нами, и мы незамедлительно удалим ее. Файлы для обмена на трекере предоставлены пользователями сайта, и администрация не несет ответственности за их содержание. Просьба не заливать файлы, защищенные авторскими правами, а также файлы нелегального содержания!