[ Today is free to download without increasing Download ]

DL-List and Torrent activity
Complete: [ 2 ]
Охотники за головами 2 / Bounty hunters 2: Hardball (1997) BDRip Страна: Канада, США
Жанр: Боевик, драма
Год выпуска: 1997
Продолжительность: 01:36:51
Перевод: Авторский (одноголосый закадровый) Сергей Кузнецов
Cубтитры: нет
Режиссер: Джордж Эршбэймер / George Erschbamer
В ролях: Майкл Дудикофф, Лиза Ховард, Тони Кёртис, Стив Бачич, Л. Харви Голд, Пабло Коффи, Риз МакБет, Эйприл Телек, Клер Райли, Гари Чок, Дейл Уилсон, Алекс Грин, Роберт Молони, Дэнни Уоттли, Стефен Димопоулос, Майкл Копса, Брэд Лори, Энн Опеншоу.
Описание: Спецагент по поимке беглецов перешел дорогу боссам местной мафии, и они заказали его убийство. Опаснейшие столкновения, преследования, захват заложников, множество взрывов, и в финале этой кровавой битвы только один останется в живых.

Качество видео: BDRip (Исходник: / BD-Remux / 1080p)
Формат видео: AVI
Видео: 704x400 (1.76:1), 23.976 fps, XviD build 73 ~1958 kbps avg, 0.29 bit/pixel
Аудио: 48 kHz, AC3 Dolby Digital, 2/0 (L,R) ch, ~192 kbps


Format : AVI
Format/Info : Audio Video Interleave
File size : 1.46 GiB
Duration : 1h 36mn
Overall bit rate : 2 160 Kbps
Writing application : VirtualDubMod | www.virtualdub-fr.org || (build 2550/release)
Writing library : VirtualDubMod build 2550/release
ID : 0
Format : MPEG-4 Visual
Format profile : Advanced Simple@L5
Format settings, BVOP : 1
Format settings, QPel : No
Format settings, GMC : No warppoints
Format settings, Matrix : Custom
Codec ID : XVID
Codec ID/Hint : XviD
Duration : 1h 36mn
Bit rate : 1 959 Kbps
Width : 704 pixels
Height : 400 pixels
Display aspect ratio : 16:9
Frame rate : 23.976 fps
Color space : YUV
Chroma subsampling : 4:2:0
Bit depth : 8 bits
Scan type : Progressive
Compression mode : Lossy
Bits/(Pixel*Frame) : 0.290
Stream size : 1.33 GiB (91%)
Writing library : XviD 73
ID : 1
Format : AC-3
Format/Info : Audio Coding 3
Mode extension : CM (complete main)
Format settings, Endianness : Big
Codec ID : 2000
Duration : 1h 36mn
Bit rate mode : Constant
Bit rate : 192 Kbps
Channel(s) : 2 channels
Channel positions : Front: L R
Sampling rate : 48.0 KHz
Bit depth : 16 bits
Compression mode : Lossy
Stream size : 133 MiB (9%)
Alignment : Split accross interleaves
Interleave, duration : 42 ms (1.00 video frame)
Interleave, preload duration : 500 ms



И что за ШНЯГА с раздачей, как вы предлагаете скачать ??? если нет раздачи !!! :bz:


Дёмский_65, а тебе это надо.


Пошла раздача, Спасибо !!!


54987Дёмский_65, а тебе это надо.
Здорова, Серёга! :aa:
Была большАя коллекция VHS, в том числе и с Дудикофф, посмотрю, вспомню... :af:


Display posts:    

Current time is: 24-Oct 01:09

All times are UTC + 3

You cannot post new topics in this forum
You cannot reply to topics in this forum
You cannot edit your posts in this forum
You cannot delete your posts in this forum
You cannot vote in polls in this forum
You cannot attach files in this forum
You cannot download files in this forum

The site does not give electronic versions of products, and is engaged only in a collecting and cataloguing of the references sent and published at a forum by our readers. If you are the legal owner of any submitted material and do not wish that the reference to it was in our catalogue, contact us and we shall immediately remove her. Files for an exchange on tracker are given by users of a site, and the administration does not bear the responsibility for their maintenance. The request to not fill in the files protected by copyrights, and also files of the illegal maintenance!