[ Today is free to download without increasing Download ]

DL-List and Torrent activity
Complete: [ 8 ]
Преступник / Criminal Информация о фильме
Название: Преступник
Оригинальное название: Criminal
Год выхода: 2016
Жанр: фантастика, боевик, триллер, драма, криминал, детектив
Режиссер: Ариэль Вромен
В ролях: Кевин Костнер, Гари Олдман, Томми Ли Джонс, Райан Рейнольдс, Элис Ив, Галь Гадот, Хорди Молья, Майкл Питт, Амори Ноласко, Антье Трауэ
О фильме: В последней отчаянной попытке остановить катастрофу мирового масштаба генетики осуществляют невероятную операцию по вживлению воспоминаний и умений погибшего оперативника ЦРУ в тело опасного заключенного с надеждой, что тот доведет до конца прерванную миссию агента.

Выпущено: Великобритания, США / Lionsgate
Продолжительность: 01:48:37
Озвучивание: Дублированное [iTunes]
Формат: MKV
Качество: WEB-DL 1080p
Видео: MPEG-4 AVC, 4321 kb/s, 1912x800
Аудио: AC3, 384 kb/s (6 ch)


Format : Matroska
Format version : Version 2
File size : 3.64 GiB
Duration : 1h 48mn
Overall bit rate : 4 801 Kbps
Encoded date : UTC 2016-07-11 22:09:08
Writing application : mkvmerge v8.3.0 ('Over the Horizon') 64bit
Writing library : libebml v1.3.1 + libmatroska v1.4.2
ID : 1
Format : AVC
Format/Info : Advanced Video Codec
Format profile : High@L4
Format settings, CABAC : Yes
Format settings, ReFrames : 5 frames
Duration : 1h 48mn
Bit rate : 4 321 Kbps
Width : 1 912 pixels
Height : 800 pixels
Display aspect ratio : 2.40:1
Frame rate mode : Constant
Frame rate : 25.000 fps
Color space : YUV
Chroma subsampling : 4:2:0
Bit depth : 8 bits
Scan type : Progressive
Bits/(Pixel*Frame) : 0.113
Stream size : 3.28 GiB (90%)
Language : English
Default : Yes
Forced : No
Color range : Limited
Color primaries : BT.709
Transfer characteristics : BT.709
Matrix coefficients : BT.709
ID : 2
Format : AC-3
Format/Info : Audio Coding 3
Mode extension : CM (complete main)
Format settings, Endianness : Big
Codec ID : A_AC3
Duration : 1h 48mn
Bit rate mode : Constant
Bit rate : 384 Kbps
Channel(s) : 6 channels
Channel positions : Front: L C R, Side: L R, LFE
Sampling rate : 48.0 KHz
Bit depth : 16 bits
Compression mode : Lossy
Stream size : 298 MiB (8%)
Language : Russian
Default : Yes
Forced : No
00:00:00.000 : en:Глава 1
00:30:26.000 : en:Глава 2
01:05:27.000 : en:Глава 3
01:40:04.000 : en:Глава 4



Display posts:    

Current time is: 27-Oct 19:48

All times are UTC + 3

You cannot post new topics in this forum
You cannot reply to topics in this forum
You cannot edit your posts in this forum
You cannot delete your posts in this forum
You cannot vote in polls in this forum
You cannot attach files in this forum
You cannot download files in this forum

The site does not give electronic versions of products, and is engaged only in a collecting and cataloguing of the references sent and published at a forum by our readers. If you are the legal owner of any submitted material and do not wish that the reference to it was in our catalogue, contact us and we shall immediately remove her. Files for an exchange on tracker are given by users of a site, and the administration does not bear the responsibility for their maintenance. The request to not fill in the files protected by copyrights, and also files of the illegal maintenance!