[ Сегодня идет свободное скачивание без начисления Download ]


Статистика раздачи
Качаю: [ 1 ]
Скачал: [ 1 ]
 
   
 
Top  
 
 
Оружие (2008) WEBRip (серий 1-10 из 10) - Производство: Россия
Жанр: Боевик, Детектив
Режиссер: Александр Касаткин
Актеры: Константин Лавроненко, Алина Сергеева, Сергей Шарифуллин, Юрий Цурило, Руслан Ибрагимов, Лев Прыгунов, Фахраддин Манафов, Сергей Никоненко, Ирина Розанова, Дмитрий Персин и др...
Описание:
Расследование обстоятельств мелкой вертолетной катастрофы приводит к ошеломляющим результатам: летательный аппарат был сбит из засекреченной ракетной установки. Для молодого инженера Марата это личная трагедия, он теряет в катастрофе невесту. Но настоящие испытания только начинаются. По странному стечению обстоятельств, под угрозой жизнь его новой возлюбленной. И угроза исходит от той же неведомой террористической организации, взорвавшей вертолет. Чтобы защитить свою новую возлюбленную Марату придется проникнуть в самое сердце террористической организации и раскрыть имена нелегальных поставщиков новейшего оружия. Ведь он — единственное связующее звено в цепи зловещих событий.

Возраст: 16+ (зрителям, достигшим 16 лет)
Продолжительность: ~ 00:52:00 серия
Качество видео: WEBRip
Видео: Xvid, 720x400 (16:9), ~1064 Kbps
Аудио: AC3, 2 ch, 192 kbps, CBR

Mediainfo:

Общее
Полное имя                               : D:\Мои фильмы\Oruzhie_1-10iz10_2008_XviD_WEBRip\Oruzhie_01_WEBRip.avi
Формат                                   : AVI
Формат/Информация                        : Audio Video Interleave
Размер файла                             : 446 Мбайт
Продолжительность                        : 49 м.
Общий поток                              : 1266 Кбит/сек
Библиотека кодирования                   : VirtualDub build 35491/release
Видео
Идентификатор                            : 0
Формат                                   : MPEG-4 Visual
Профиль формата                          : Advanced Simple@L5
Параметр BVOP формата                    : 2
Параметр QPel формата                    : Нет
Параметр GMC формата                     : Без точки перехода
Параметр матрицы формата                 : Default (H.263)
Идентификатор кодека                     : XVID
Идентификатор кодека/Подсказка           : XviD
Продолжительность                        : 49 м.
Битрейт                                  : 1064 Кбит/сек
Ширина                                   : 720 пикселей
Высота                                   : 400 пикселей
Соотношение сторон                       : 16:9
Частота кадров                           : 25,000 кадров/сек
Цветовое пространство                    : YUV
Субдискретизация насыщенности            : 4:2:0
Битовая глубина                          : 8 бит
Тип развёртки                            : Прогрессивная
Метод сжатия                             : С потерями
Бит/(Пиксели*Кадры)                      : 0.148
Размер потока                            : 375 Мбайт (84%)
Библиотека кодирования                   : XviD 67
Аудио
Идентификатор                            : 1
Формат                                   : AC-3
Формат/Информация                        : Audio Coding 3
Расширение режима                        : CM (complete main)
Параметр Endianness формата              : Big
Идентификатор кодека                     : 2000
Продолжительность                        : 49 м.
Вид битрейта                             : Постоянный
Битрейт                                  : 192 Кбит/сек
Каналы                                   : 2 канала
Расположение каналов                     : Front: L R
Частота                                  : 48,0 КГц
Частота кадров                           : 31,250 кадров/сек (1536 spf)
Метод сжатия                             : С потерями
Размер потока                            : 67,6 Мбайт (15%)
Выравнивание                             : Соединение по промежуткам
Продолжительность промежутка             : 40  мс. (1,00 видеокадр)
Время предзагрузки промежутка            : 512  мс.
Скриншоты:

[Цитировать]



Показать сообщения:    

Текущее время: 09-Дек 08:50

Часовой пояс: UTC + 3


Вы не можете начинать темы
Вы не можете отвечать на сообщения
Вы не можете редактировать свои сообщения
Вы не можете удалять свои сообщения
Вы не можете голосовать в опросах
Вы не можете прикреплять файлы к сообщениям
Вы не можете скачивать файлы

!ВНИМАНИЕ!
Сайт не предоставляет электронные версии произведений, а занимается лишь коллекционированием и каталогизацией ссылок, присылаемых и публикуемых на форуме нашими читателями. Если вы являетесь правообладателем какого-либо представленного материала и не желаете, чтобы ссылка на него находилась в нашем каталоге, свяжитесь с нами, и мы незамедлительно удалим ее. Файлы для обмена на трекере предоставлены пользователями сайта, и администрация не несет ответственности за их содержание. Просьба не заливать файлы, защищенные авторскими правами, а также файлы нелегального содержания!