[ Сегодня идет свободное скачивание без начисления Download ]


Статистика раздачи
Скачал: [ 5 ]
 
   
 
Top  
 
 
Информация о фильме
Название: Большой и добрый великан
Оригинальное название: The BFG
Год выхода: 2016
Жанр: фэнтези, приключения, семейный
Режиссер: Стивен Спилберг
В ролях: Марк Райлэнс, Руби Барнхилл, Пенелопа Уилтон, Джемейн Клемент, Ребекка Холл, Рейф Сполл, Билл Хейдер, Оулавюр Дарри Оулафссон, Адам Годли, Майкл Адамуэйт
О фильме:
В центре истории девочка по имени Софи, которая не смогла заснуть до полуночи и в окошко увидела огромного великана, который подходил к соседним домам и начинал дуть в окна спален. В полном соответствии со старинными поверьями и детскими страшилками, великан увидел Софи и унес к себе домой, в страну великанов.
Как оказалось, он в этой самой стране был единственным добрым великаном: действуя в обстановке строжайшей секретности, он коллекционировал хорошие сны, которые по ночам раздавал детям. Уши у него устроены таким образом, что он слышит, что и о чем снится ребятам, и никогда не позволяет им видеть кошмары..

Страна: Великобритания, Канада, США
Продолжительность: 01:52:12
Перевод: Профессиональный (полное дублирование)
Файл
Кодек: XviD
Качество: TC-AVC
Видео: AVC, 720x352 (2.045), 29.940 fps, 2 200 Kbps (0.290 bit/pixel)
Звук:
Аудио #1: AC-3, 48.0 KHz, 2 ch, 384 Kbps, CBR | Rus
Аудио #2: MP3, 48.0 KHz, 2 ch, 320 Kbps, CBR | Eng
Семпл

MediaInfo

Общее
Уникальный идентификатор : 250074987501543607153158499950560467497 (0xBC22B0D037B594AEB9F1E44AB136DA29)
Полное имя : The BFG 2016.TC.Rus.Eng.mkv
Формат : Matroska
Версия формата : Version 4 / Version 2
Размер файла : 2,26 Гбайт
Продолжительность : 1 ч. 52 м.
Общий поток : 2890 Кбит/сек
Дата кодирования : UTC 2016-07-11 19:26:01
Программа кодирования : mkvmerge v8.3.0 ('Over the Horizon') 64bit
Библиотека кодирования : libebml v1.3.1 + libmatroska v1.4.2
Видео
Идентификатор : 1
Формат : AVC
Формат/Информация : Advanced Video Codec
Профиль формата : High@L4.2
Параметр CABAC формата : Да
Параметр ReFrames формата : 3 кадра
Идентификатор кодека : V_MPEG4/ISO/AVC
Продолжительность : 1 ч. 52 м.
Битрейт : 2200 Кбит/сек
Ширина : 720 пикселей
Высота : 352 пикселя
Соотношение сторон : 2,045
Режим частоты кадров : Постоянный
Частота кадров : 29,940 кадров/сек
Цветовое пространство : YUV
Субдискретизация насыщенности : 4:2:0
Битовая глубина : 8 бит
Тип развёртки : Прогрессивная
Бит/(Пиксели*Кадры) : 0.290
Размер потока : 1,71 Гбайт (76%)
Библиотека кодирования : x264 core 148 r2638 7599210
Настройки программы : cabac=1 / ref=3 / deblock=1:-1:-1 / analyse=0x3:0x113 / me=hex / subme=7 / psy=1 / psy_rd=1.00:0.15 / mixed_ref=1 / me_range=16 / chroma_me=1 / trellis=1 / 8x8dct=1 / cqm=0 / deadzone=21,11 / fast_pskip=1 / chroma_qp_offset=-3 / threads=11 / lookahead_threads=1 / sliced_threads=0 / nr=0 / decimate=1 / interlaced=0 / bluray_compat=0 / constrained_intra=0 / bframes=3 / b_pyramid=0 / b_adapt=1 / b_bias=0 / direct=1 / weightb=1 / open_gop=1 / weightp=2 / keyint=25 / keyint_min=1 / scenecut=40 / intra_refresh=0 / rc_lookahead=37 / rc=abr / mbtree=1 / bitrate=2200 / ratetol=1.0 / qcomp=0.60 / qpmin=10 / qpmax=51 / qpstep=4 / vbv_maxrate=62500 / vbv_bufsize=78125 / nal_hrd=none / filler=0 / ip_ratio=1.40 / aq=1:1.00
Default : Да
Forced : Нет
Аудио #1
Идентификатор : 2
Формат : AC-3
Формат/Информация : Audio Coding 3
Расширение режима : CM (complete main)
Параметр Endianness формата : Big
Идентификатор кодека : A_AC3
Продолжительность : 1 ч. 52 м.
Вид битрейта : Постоянный
Битрейт : 384 Кбит/сек
Каналы : 2 канала
Расположение каналов : Front: L R
Частота : 48,0 КГц
Частота кадров : 31,250 кадров/сек (1536 spf)
Метод сжатия : С потерями
Размер потока : 308 Мбайт (13%)
Заголовок : RUS ТС
Default : Да
Forced : Нет
Аудио #2
Идентификатор : 3
Формат : MPEG Audio
Версия формата : Version 1
Профиль формата : Layer 3
Режим : Joint stereo
Расширение режима : MS Stereo
Идентификатор кодека : A_MPEG/L3
Идентификатор кодека/Подсказка : MP3
Продолжительность : 1 ч. 52 м.
Вид битрейта : Постоянный
Битрейт : 320 Кбит/сек
Каналы : 2 канала
Частота : 48,0 КГц
Частота кадров : 41,667 кадра/сек (1152 spf)
Метод сжатия : С потерями
Размер потока : 257 Мбайт (11%)
Заголовок : ENG TC
Default : Нет
Forced : Нет

Скриншоты

[Цитировать]



Показать сообщения:    

Текущее время: 10-Дек 17:41

Часовой пояс: UTC + 3


Вы не можете начинать темы
Вы не можете отвечать на сообщения
Вы не можете редактировать свои сообщения
Вы не можете удалять свои сообщения
Вы не можете голосовать в опросах
Вы не можете прикреплять файлы к сообщениям
Вы не можете скачивать файлы

!ВНИМАНИЕ!
Сайт не предоставляет электронные версии произведений, а занимается лишь коллекционированием и каталогизацией ссылок, присылаемых и публикуемых на форуме нашими читателями. Если вы являетесь правообладателем какого-либо представленного материала и не желаете, чтобы ссылка на него находилась в нашем каталоге, свяжитесь с нами, и мы незамедлительно удалим ее. Файлы для обмена на трекере предоставлены пользователями сайта, и администрация не несет ответственности за их содержание. Просьба не заливать файлы, защищенные авторскими правами, а также файлы нелегального содержания!