[ Сегодня идет свободное скачивание без начисления Download ]


Статистика раздачи
Нет
 
   
 
Top  
 
 
Гемоглобин / Bleeders / Hemoglobin (1997) DVDRemux Информация о фильме
Название: Гемоглобин
Оригинальное название: Bleeders / Hemoglobin
Год выхода: 1997
Жанр: ужасы, триллер, экранизация
Режиссер: Питер Сватек
В ролях:
Рутгер Хауэр — Dr. Marlowe, Рой Дюпюи — John Strauss, Джиллиан Ферраби — Eva Van Daam / Her Twin Brother / John's Twin Sister, Паскаль Грюзейе — Vermeer, Кристин Леман — Kathleen Strauss, Джон Харольд Кэйл — Ferryman, Джоэнна Нойес — Byrde Gordon, Фелиция Шульман — Yolanda, Жанин Терио — Alice Gordon, Мишель Брунет — Ramona, Дэвид Девё — Ben, Спенсер Эванс — Squeakie, Кармен Ферланд — Mrs. Shea, Лени Паркер — Baby Laura, Лиза Бронвин Мур — Toot, Джон Данн-Хилл — Hank Gordon, Джеки Барроуз — Lexie.
О фильме:
Начало этой истории было положено более трех веков назад, когда юная красавица Эва Ван Даам сделала своим любовником собственного брата-близнеца и положила начало кровосмешению.
Изгнанные из родной Голландии, обреченные на вымирание из-за необъяснимой мутации, ужасные монстры находят пристанище на заброшенном острове. Уже в наше время разгневанные и напуганные жители острова пытались «стереть с лица земли» страшное семейство, загнав их в подземные катакомбы. Но они выжили, и теперь ими движет жажда крови и мести…

Страна: Канада США США
Студия: Fries/Schultz Film Group, Kingsborough Greenlight Pictures
Продолжительность: 01:28:46
Перевод: Профессиональный двухголосый, Профессиональный многоголосый, Авторский одноголосый, Оригинал
Файл
Кодек: MPEG2
Качество: DVDRemux
Видео: 720x576 @ 768x576 (4:3), 25.000 fps, 7995 kbps
Звук:
Аудио #1: AC3, 448 Kbps, 48.0 KHz, 5 ch (Rus) Профессиональный двухголосый, DVD Group
Аудио #2: AC3, 224 Kbps, 48.0 KHz, 2 ch (Rus) Профессиональный двухголосый, АСГ Видеофильм
Аудио #3: AC3, 192 Kbps, 48.0 KHz, 2 ch (Ukr) Профессиональный многоголосый, Так Треба Продакшн
Аудио #4: AC3, 192 Kbps, 48.0 KHz, 2 ch (Rus) Авторский одноголосый, А.Кашкин
Аудио #5: AC3, 448 Kbps, 48.0 KHz, 5 ch (Eng) Оригинал
Субтитры: Русские, Украинские

Скриншоты


MediaInfo

Формат : Matroska
Версия формата : Version 2
Размер файла : 6,01 Гбайт
Продолжительность : 1 ч. 28 м.
Режим общего битрейта : Переменный
Общий поток : 9692 Кбит/сек
Дата кодирования : UTC 2016-07-08 06:58:38
Программа кодирования : mkvmerge v5.4.0 ('Piper') built on Mar 10 2012 13:34:39
Библиотека кодирования : libebml v1.2.3 + libmatroska v1.3.0
Видео
Идентификатор : 1
Формат : MPEG Video
Версия формата : Version 2
Профиль формата : Main@Main
Параметр BVOP формата : Да
Параметр матрицы формата : Выборочная
Параметр GOP формата : M=3, N=15
Format_Settings_PictureStructure : Frame
Идентификатор кодека : V_MPEG2
Идентификатор кодека/Информация : MPEG 1 or 2 Video
Продолжительность : 1 ч. 28 м.
Вид битрейта : Переменный
Битрейт : 7995 Кбит/сек
Максимальный битрейт : 9000 Кбит/сек
Ширина : 720 пикселей
Высота : 576 пикселей
Соотношение сторон : 4:3
Режим частоты кадров : Постоянный
Частота кадров : 25,000 кадров/сек
Стандарт вещания : PAL
Цветовое пространство : YUV
Субдискретизация насыщенности : 4:2:0
Битовая глубина : 8 бит
Тип развёртки : Чересстрочная
Порядок развёртки : Верхнее поле первое
Метод сжатия : С потерями
Бит/(Пиксели*Кадры) : 0.771
Временной код первого кадра : 01:02:12:00
Оригинал временного кода : Group of pictures header
Размер потока : 4,96 Гбайт (82%)
Заголовок : Bleeders / Hemoglobin / Гемоглобин (1997)
Язык : English
Default : Да
Forced : Нет
Аудио #1
Идентификатор : 2
Формат : AC-3
Формат/Информация : Audio Coding 3
Расширение режима : CM (complete main)
Параметр Endianness формата : Big
Идентификатор кодека : A_AC3
Продолжительность : 1 ч. 28 м.
Вид битрейта : Постоянный
Битрейт : 448 Кбит/сек
Каналы : 5 каналов
Расположение каналов : Front: L C R, Side: L R
Частота : 48,0 КГц
Битовая глубина : 16 бит
Метод сжатия : С потерями
Размер потока : 284 Мбайт (5%)
Заголовок : DVO (Russian) DVD Group
Язык : Russian
Default : Да
Forced : Нет
Аудио #2
Идентификатор : 3
Формат : AC-3
Формат/Информация : Audio Coding 3
Расширение режима : CM (complete main)
Параметр Endianness формата : Big
Идентификатор кодека : A_AC3
Продолжительность : 1 ч. 28 м.
Вид битрейта : Постоянный
Битрейт : 224 Кбит/сек
Каналы : 2 канала
Расположение каналов : Front: L R
Частота : 48,0 КГц
Битовая глубина : 16 бит
Метод сжатия : С потерями
Размер потока : 142 Мбайт (2%)
Заголовок : DVO (Russian) АСГ Видеофильм
Язык : Russian
Default : Нет
Forced : Нет
Аудио #3
Идентификатор : 4
Формат : AC-3
Формат/Информация : Audio Coding 3
Расширение режима : CM (complete main)
Параметр Endianness формата : Big
Идентификатор кодека : A_AC3
Продолжительность : 1 ч. 28 м.
Вид битрейта : Постоянный
Битрейт : 192 Кбит/сек
Каналы : 2 канала
Расположение каналов : Front: L R
Частота : 48,0 КГц
Битовая глубина : 16 бит
Метод сжатия : С потерями
Размер потока : 122 Мбайт (2%)
Заголовок : MVO (Ukrainian) Так Треба Продакшн
Язык : Ukrainian
Default : Нет
Forced : Нет
Аудио #4
Идентификатор : 5
Формат : AC-3
Формат/Информация : Audio Coding 3
Расширение режима : CM (complete main)
Параметр Endianness формата : Big
Идентификатор кодека : A_AC3
Продолжительность : 1 ч. 28 м.
Вид битрейта : Постоянный
Битрейт : 192 Кбит/сек
Каналы : 2 канала
Расположение каналов : Front: L R
Частота : 48,0 КГц
Битовая глубина : 16 бит
Метод сжатия : С потерями
Размер потока : 122 Мбайт (2%)
Заголовок : AVO (А.Кашкин)
Язык : Russian
Default : Нет
Forced : Нет
Аудио #5
Идентификатор : 6
Формат : AC-3
Формат/Информация : Audio Coding 3
Расширение режима : CM (complete main)
Параметр Endianness формата : Big
Идентификатор кодека : A_AC3
Продолжительность : 1 ч. 28 м.
Вид битрейта : Постоянный
Битрейт : 448 Кбит/сек
Каналы : 5 каналов
Расположение каналов : Front: L C R, Side: L R
Частота : 48,0 КГц
Битовая глубина : 16 бит
Метод сжатия : С потерями
Размер потока : 284 Мбайт (5%)
Заголовок : Original (English)
Язык : English
Default : Нет
Forced : Нет
Текст #1
Идентификатор : 7
Формат : UTF-8
Идентификатор кодека : S_TEXT/UTF8
Идентификатор кодека/Информация : UTF-8 Plain Text
Заголовок : Rus
Язык : Russian
Default : Нет
Forced : Нет
Текст #2
Идентификатор : 8
Формат : VobSub
Режим смешивания : zlib
Идентификатор кодека : S_VOBSUB
Идентификатор кодека/Информация : The same subtitle format used on DVDs
Заголовок : Rus
Язык : Russian
Default : Нет
Forced : Нет
Текст #3
Идентификатор : 9
Формат : VobSub
Режим смешивания : zlib
Идентификатор кодека : S_VOBSUB
Идентификатор кодека/Информация : The same subtitle format used on DVDs
Заголовок : Ukr
Язык : Ukrainian
Default : Нет
Forced : Нет
Меню
00:00:00.080 : en:Chapter 01
00:03:57.680 : en:Chapter 02
00:10:31.280 : en:Chapter 03
00:14:59.480 : en:Chapter 04
00:20:13.280 : en:Chapter 05
00:23:22.280 : en:Chapter 06
00:27:37.280 : en:Chapter 07
00:30:56.480 : en:Chapter 08
00:34:08.480 : en:Chapter 09
00:39:00.080 : en:Chapter 10
00:44:24.080 : en:Chapter 11
00:47:52.280 : en:Chapter 12
00:55:24.080 : en:Chapter 13
01:03:19.280 : en:Chapter 14
01:10:05.480 : en:Chapter 15
01:14:51.080 : en:Chapter 16
01:18:33.080 : en:Chapter 17
01:24:28.280 : en:Chapter 18

[Цитировать]



Показать сообщения:    

Текущее время: 22-Янв 21:22

Часовой пояс: UTC + 3


Вы не можете начинать темы
Вы не можете отвечать на сообщения
Вы не можете редактировать свои сообщения
Вы не можете удалять свои сообщения
Вы не можете голосовать в опросах
Вы не можете прикреплять файлы к сообщениям
Вы не можете скачивать файлы

!ВНИМАНИЕ!
Сайт не предоставляет электронные версии произведений, а занимается лишь коллекционированием и каталогизацией ссылок, присылаемых и публикуемых на форуме нашими читателями. Если вы являетесь правообладателем какого-либо представленного материала и не желаете, чтобы ссылка на него находилась в нашем каталоге, свяжитесь с нами, и мы незамедлительно удалим ее. Файлы для обмена на трекере предоставлены пользователями сайта, и администрация не несет ответственности за их содержание. Просьба не заливать файлы, защищенные авторскими правами, а также файлы нелегального содержания!