[ Сегодня идет свободное скачивание без начисления Download ]


Статистика раздачи
Нет
 
   
 
Top  
 
 
Прощай, любовь / Bye Bye Love (1995) HDTV 1080i Информация о фильме
Название: Прощай, любовь
Оригинальное название: Bye Bye Love
Год выхода: 1995
Жанр: Комедия, драма, мелодрама
Режиссер: Сэм Уайзман
В ролях: Мэттью Модайн, Рэнди Куэйд, Пол Райзер, Джанин Гарофало, Эми Бреннеман, Элиза Душку, Эд Флэндерс, Мария Питилло, Линдси Краус, Росс Мэлинджер
О фильме:
Три друга Мэттью Модин, Рэнди Куэйд и Пол Райзер разведены со своими женами. Они часто видятся с детьми, экс-супругами, встречаются с новыми подружками. Но наедине друг с другом не скрывают, что развод, через который прошел каждый из них, оставил в душе тяжелый след, и раны до сих пор кровоточат. Но больше всего приятелей раздражает словоохотливый ведущий новой популярной радиопередачи о проблемах развода. Этот краснобай без устали обличает легкомысленных отцов, бросающих жен и детей. Однако, неожиданно выясняется, что обличитель мужских пороков сам был четырежды женат, а сейчас опять в разводе. Эмоциональный Рэнди приходит на радиостанцию и врывается в прямой эфир, чтобы высказать все в лицо ненавистному моралисту…

Страна: США
Студия: Twentieth Century Fox Film Corporation, Ubu Productions
Продолжительность: 01:39:42
Перевод: Профессиональный многоголосый
Файл
Кодек: h.264
Качество: HDTV 1080i
Видео: MPEG-4 AVC, ~ 8327 Кбит/с, 1920x1080, 25.000 кадр/с
Звук:
Русский (AC3, 6 ch, 384 Кбит/с) / Профессиональный многоголосый (Первый канал)
Русский (MP2, 2 ch, 192 Кбит/с) / Профессиональный многоголосый (Первый канал)
Субтитры: Нет
Семпл

MI

Общее
Идентификатор : 1 (0x1)
Полное имя : D:uTorrentProstsay.ljubov.1995.HDTV.1080i.MediaClub.ts
Формат : MPEG-TS
Размер файла : 6,53 Гбайт
Продолжительность : 1 ч. 39 м.
Режим общего битрейта : Переменный
Общий поток : 9372 Кбит/сек
Видео
Идентификатор : 1904 (0x770)
Идентификатор меню : 904 (0x388)
Формат : AVC
Формат/Информация : Advanced Video Codec
Профиль формата : High@L4
Параметр CABAC формата : Да
Параметр ReFrames формата : 3 кадра
Идентификатор кодека : 27
Продолжительность : 1 ч. 39 м.
Битрейт : 8327 Кбит/сек
Ширина : 1920 пикселей
Высота : 1080 пикселей
Соотношение сторон : 16:9
Частота кадров : 25,000 кадров/сек
Стандарт вещания : Component
Цветовое пространство : YUV
Субдискретизация насыщенности : 4:2:0
Битовая глубина : 8 бит
Тип развёртки : Чересстрочная
Метод сохранения типа развёртки : Раздельные поля
Порядок развёртки : Верхнее поле первое
Бит/(Пиксели*Кадры) : 0.161
Размер потока : 5,80 Гбайт (89%)
Цветовой диапазон : Limited
Основные цвета : BT.709
Характеристики трансфера : BT.709
Коэффициенты матрицы : BT.709
Аудио #1
Идентификатор : 2904 (0xB58)
Идентификатор меню : 904 (0x388)
Формат : AC-3
Формат/Информация : Audio Coding 3
Расширение режима : CM (complete main)
Параметр Endianness формата : Big
Идентификатор кодека : 6
Продолжительность : 1 ч. 39 м.
Вид битрейта : Постоянный
Битрейт : 384 Кбит/сек
Каналы : 6 каналов
Расположение каналов : Front: L C R, Side: L R, LFE
Частота : 48,0 КГц
Частота кадров : 31,250 кадров/сек (1536 spf)
Метод сжатия : С потерями
Задержка видео : -120 мс.
Размер потока : 274 Мбайт (4%)
Язык : Russian
Аудио #2
Идентификатор : 2905 (0xB59)
Идентификатор меню : 904 (0x388)
Формат : MPEG Audio
Версия формата : Version 1
Профиль формата : Layer 2
Идентификатор кодека : 3
Продолжительность : 1 ч. 39 м.
Вид битрейта : Постоянный
Битрейт : 192 Кбит/сек
Каналы : 2 канала
Частота : 48,0 КГц
Метод сжатия : С потерями
Задержка видео : -120 мс.
Размер потока : 137 Мбайт (2%)
Язык : Russian

Скриншоты

[Цитировать]



Показать сообщения:    

Текущее время: 10-Дек 17:46

Часовой пояс: UTC + 3


Вы не можете начинать темы
Вы не можете отвечать на сообщения
Вы не можете редактировать свои сообщения
Вы не можете удалять свои сообщения
Вы не можете голосовать в опросах
Вы не можете прикреплять файлы к сообщениям
Вы не можете скачивать файлы

!ВНИМАНИЕ!
Сайт не предоставляет электронные версии произведений, а занимается лишь коллекционированием и каталогизацией ссылок, присылаемых и публикуемых на форуме нашими читателями. Если вы являетесь правообладателем какого-либо представленного материала и не желаете, чтобы ссылка на него находилась в нашем каталоге, свяжитесь с нами, и мы незамедлительно удалим ее. Файлы для обмена на трекере предоставлены пользователями сайта, и администрация не несет ответственности за их содержание. Просьба не заливать файлы, защищенные авторскими правами, а также файлы нелегального содержания!