[ Сегодня идет свободное скачивание без начисления Download ]


Статистика раздачи
Нет
 
   
 
Top  
 
 
Вечное Сияние Чистого Разума // Eternal Sunshine of the Spotless Mind>>Год выпуска: 2004
>>Страна: США
>>Производство: Focus Features
>>Жанр: фантастика, мелодрама, драма
>>Режиссёр: Мишель Гондри / Michel Gondry
>>В ролях: Джим Кэрри, Брайан Прайс, Деббон Эйер, Джейн Адамс, Джерри Роберт Бирн, Дэвид Кросс, Кейт Уинслет, Кирстен Данст, Марк Руффало, Пол Литовски, Райан Уитни, Том Уилкинсон, Томас Джэй Райан, Элайджа Вуд, Эмир Али Саид
>>Перевод: Профессиональный (полное дублирование)
>>Субтитры: Есть: Внешние: Русские
>>Описание: Наконец-то изобретена машина, которая позволяет избавиться от любых воспоминаний. Джоэль и Клементина решают выбросить друг друга из головы. Но в памяти Джоэля все еще живы самые нежные моменты их чувства. Чем меньше он помнит, тем больше любит.
Понимая, что он просто обожает Клементину, Джоэль пытается найти способ, чтобы вернуть любимой память о прошлом. Пока еще не очень поздно… Он должен победить ненавистный компьютерный мозг во что бы то ни стало!


>>Качество: BDRip 1080p
>>Продолжительность: 01:47:44
>>Формат: MKV
>>Видео кодек: H.264
>>Аудио кодек: AС3
>>Видео: 1920x1040 (16:9), 23.976 fps, MPEG-4 AVC Video, build ~9665 kbps avg, 0.202 bit/pixel
>>Аудио: Аудио#1 48 kHz, AC-3, 6 ch, ~640 kbps avg Русский
Аудио#2 48 kHz, AC-3, 6 ch, ~448 kbps avg Английский

Награды и номинации

Приз Национального совета обозревателей за оригинальный сценарий (Чарли Кауфман)
Оскар, 2005 год
Победитель (1):
Лучший оригинальный сценарий
Номинации (1):
Лучшая женская роль (Кейт Уинслет)-Золотой глобус, 2005 год
Номинации (4):
Лучший фильм (комедия или мюзикл)
Лучшая мужская роль (комедия или мюзикл) (Джим Керри)
Лучшая женская роль (комедия или мюзикл) (Кейт Уинслет)
Лучший сценарий-Британская академия, 2005 год
Победитель (2):
Лучший оригинальный сценарий
Лучший монтаж-Номинации (4):
Лучший фильм
Лучшая мужская роль (Джим Керри)
Лучшая женская роль (Кейт Уинслет)
Премия имени Дэвида Лина за достижения в режиссуре (Мишель Гондри)-Сезар, 2005 год
Номинации (1):
Лучший фильм на иностранном языке-Жорж, 2005 год
Номинации (1):
Лучший развлекательный фильм

MEDIAINFO

General
Complete name : D:\Фильмы\Вечное сияние чистого разума\Вечное сияние чистого разума.BDRip, 1080p.mkv
Format : Matroska
Format version : Version 1
File size : 7.92 GiB
Duration : 1h 47mn
Overall bit rate : 10.5 Mbps
Encoded date : UTC 2010-04-29 08:32:52
Writing application : mkvmerge v2.1.0 ('Another Place To Fall') built on Aug 19 2007 13:40:07
Writing library : libebml v0.7.7 + libmatroska v0.8.1
Video #1
ID : 1
Format : AVC
Format/Info : Advanced Video Codec
Format profile : High@L4.1
Format settings, CABAC : Yes
Format settings, ReFrames : 4 frames
Codec ID : V_MPEG4/ISO/AVC
Duration : 1h 47mn
Bit rate : 9 882 Kbps
Width : 1 920 pixels
Height : 1 040 pixels
Display aspect ratio : 16:9
Frame rate : 23.976 fps
Color space : YUV
Chroma subsampling : 4:2:0
Bit depth : 8 bits
Scan type : Progressive
Bits/(Pixel*Frame) : 0.206
Stream size : 7.28 GiB (92%)
Writing library : x264 core 79 r1342kMod e8501ef
Encoding settings : cabac=1 / ref=4 / deblock=1:-3:-3 / analyse=0x3:0x133 / me=umh / subme=10 / psy=1 / psy_rd=1.0:0.1 / mixed_ref=1 / me_range=32 / chroma_me=1 / trellis=2 / 8x8dct=1 / cqm=0 / deadzone=21,11 / chroma_qp_offset=-3 / threads=6 / nr=0 / decimate=1 / mbaff=0 / constrained_intra=0 / bframes=10 / b_pyramid=2 / b_adapt=2 / b_bias=0 / direct=3 / wpredb=1 / wpredp=2 / keyint=250 / keyint_min=25 / scenecut=40 / rc=2pass / mbtree=0 / bitrate=9882 / ratetol=1.0 / qcomp=0.60 / qpmin=10 / qpmax=51 / qpstep=4 / cplxblur=20.0 / qblur=0.5 / ip_ratio=1.40 / pb_ratio=1.30 / aq=1:1.00
Default : Yes
Forced : No
Audio #2
ID : 2
Format : AC-3
Format/Info : Audio Coding 3
Mode extension : CM (complete main)
Codec ID : A_AC3
Duration : 1h 47mn
Bit rate mode : Constant
Bit rate : 640 Kbps
Channel(s) : 6 channels
Channel positions : Front: L C R, Side: L R, LFE
Sampling rate : 48.0 KHz
Bit depth : 16 bits
Compression mode : Lossy
Stream size : 493 MiB (6%)
Default : Yes
Forced : No
Text #3
ID : 3
Format : VobSub
Muxing mode : zlib
Codec ID : S_VOBSUB
Codec ID/Info : The same subtitle format used on DVDs
Language : Russian
Default : Yes
Forced : No
Text #4
ID : 4
Format : UTF-8
Codec ID : S_TEXT/UTF8
Codec ID/Info : UTF-8 Plain Text
Default : No
Forced : No
[th]http://torrentsclub.org/pictures/2cff945bc1fd5cba7f...2240822.png[/th]
[th]http://torrentsclub.org/pictures/387a798c23b9c7281c...3831b5e.png[/th]
[th]http://torrentsclub.org/pictures/e4d7e6ba4ed1f001fa...03d15c5.png[/th]

[Цитировать]



Показать сообщения:    

Текущее время: 09-Дек 04:52

Часовой пояс: UTC + 3


Вы не можете начинать темы
Вы не можете отвечать на сообщения
Вы не можете редактировать свои сообщения
Вы не можете удалять свои сообщения
Вы не можете голосовать в опросах
Вы не можете прикреплять файлы к сообщениям
Вы не можете скачивать файлы

!ВНИМАНИЕ!
Сайт не предоставляет электронные версии произведений, а занимается лишь коллекционированием и каталогизацией ссылок, присылаемых и публикуемых на форуме нашими читателями. Если вы являетесь правообладателем какого-либо представленного материала и не желаете, чтобы ссылка на него находилась в нашем каталоге, свяжитесь с нами, и мы незамедлительно удалим ее. Файлы для обмена на трекере предоставлены пользователями сайта, и администрация не несет ответственности за их содержание. Просьба не заливать файлы, защищенные авторскими правами, а также файлы нелегального содержания!