[ Сегодня идет свободное скачивание без начисления Download ]


Статистика раздачи
Нет
 
   
 
 
 
Загадочные преступления средневековья / Medieval Murder Mysteries (2015) HDTVRip [H.264/720p] (1-8 серия из 8)- Телекомпания: Military Series Productions
Жанр: Документальный, история, расследования
Режиссер: Брюс Бюргесс
Описание:
Многие загадочные исторические преступления были раскрыты после их совершения. Однако, в некоторых случаях, причины и обстоятельства смерти приходится устанавливать современным ученым и историкам. В этой серии передач мы рассмотрим самые значимые нераскрытые убийства прошлого, озвучим самые популярные гипотезы и соберём улики воедино. Уже сотни лет прошло с тех времён но с помощью судмедэкспертов, криминологов и специалистов мы попытаемся разгадать эти таинственные средневековые преступления.
Продолжительность: 6 x ~ 00:44:00
Качество видео: HDTVRip 720p
Перевод: Одноголосый закадровый, профессиональный
Видео: AVC/H.264, 1280x720, ~3650 Кбит/с
Аудио#1: Rus; MP2, 2 ch, 128 Кбит/с, 48 KHz
Аудио#2: Eng; MP2, 2 ch, 128 Кбит/с, 48 KHz

Mediainfo (параметры всех серий идентичны) :

General
Unique ID                   : 202786319207246341966366770792442419147 (0x988F39756157D4A182070664E9FCD7CB)
Complete name               : G:\Торренты\Загадочные преступления средневековья\Загадочные преступления  средневековья 4_720p.mkv
Format                      : Matroska
Format version              : Version 4 / Version 2
File size                   : 1.21 GiB
Duration                    : 44mn 28s
Overall bit rate            : 3 905 Kbps
Encoded date                : UTC 2016-07-05 02:19:20
Writing application         : mkvmerge v8.9.0 ('Father Daughter') 64bit
Writing library             : libebml v1.3.3 + libmatroska v1.4.4
Video
ID                          : 1
Format                      : AVC
Format/Info                 : Advanced Video Codec
Format profile              : [url=mailto:High@L4.1]High@L4.1[/url]
Format settings, CABAC      : Yes
Format settings, ReFrames   : 9 frames
Codec ID                    : V_MPEG4/ISO/AVC
Duration                    : 44mn 28s
Bit rate                    : 3 650 Kbps
Width                       : 1 280 pixels
Height                      : 720 pixels
Display aspect ratio        : 16:9
Frame rate mode             : Constant
Frame rate                  : 25.000 fps
Color space                 : YUV
Chroma subsampling          : 4:2:0
Bit depth                   : 8 bits
Scan type                   : Progressive
Bits/(Pixel*Frame)          : 0.158
Stream size                 : 1.13 GiB (93%)
Writing library             : x264 core 148 r2638 7599210
Encoding settings           : cabac=1 / ref=9 / deblock=1:-3:-3 / analyse=0x3:0x133 / me=umh / subme=11 / psy=1 / psy_rd=1.00:0.00 / mixed_ref=1 / me_range=32 / chroma_me=1 / trellis=2 / 8x8dct=1 / cqm=0 / deadzone=21,11 / fast_pskip=1 / chroma_qp_offset=-2 / threads=12 / lookahead_threads=2 / sliced_threads=0 / nr=0 / decimate=0 / interlaced=0 / bluray_compat=0 / constrained_intra=0 / bframes=9 / b_pyramid=2 / b_adapt=2 / b_bias=0 / direct=3 / weightb=1 / open_gop=0 / weightp=2 / keyint=250 / keyint_min=25 / scenecut=40 / intra_refresh=0 / rc_lookahead=50 / rc=2pass / mbtree=1 / bitrate=3650 / ratetol=1.0 / qcomp=0.60 / qpmin=0 / qpmax=69 / qpstep=4 / cplxblur=20.0 / qblur=0.5 / ip_ratio=1.40 / aq=1:1.00
Language                    : English
Default                     : Yes
Forced                      : No
Audio #1
ID                          : 2
Format                      : MPEG Audio
Format version              : Version 1
Format profile              : Layer 2
Codec ID                    : A_MPEG/L2
Codec ID/Hint               : MP2
Duration                    : 44mn 28s
Bit rate mode               : Constant
Bit rate                    : 128 Kbps
Channel(s)                  : 2 channels
Sampling rate               : 48.0 KHz
Frame rate                  : 41.667 fps (1152 spf)
Compression mode            : Lossy
Stream size                 : 40.7 MiB (3%)
Language                    : Russian
Default                     : Yes
Forced                      : No
Audio #2
ID                          : 3
Format                      : MPEG Audio
Format version              : Version 1
Format profile              : Layer 2
Codec ID                    : A_MPEG/L2
Codec ID/Hint               : MP2
Duration                    : 44mn 28s
Bit rate mode               : Constant
Bit rate                    : 128 Kbps
Channel(s)                  : 2 channels
Sampling rate               : 48.0 KHz
Frame rate                  : 41.667 fps (1152 spf)
Compression mode            : Lossy
Stream size                 : 40.7 MiB (3%)
Language                    : English
Default                     : No
Forced                      : No

Содержание:

01. Принцы в заточении: Королевская казнь / The Princes in the Tauer: A Royal Execution
Одним из самых постыдных убийств в лондонском Тауэре является убийство двух маленьких принцев их дядей, Ричардом III. Но так ли это было, или король на самом деле невиновен? В 1483 году в лондонском Тауэре произошло жестокое убийство двух маленьких принцев. История помнит короля Джона как человека, стоящего за их убийством, но так ли это, действительно ли он виновен? Эксперты средневековой истории исследуют все материалы и вынесут свой вердикт по поводу одного из самых жестоких убийств в истории Англии.
02. Кристофер Марлоу: Смерть в Дептфорде / Christopher Marlowe: Death in Deptford
Кристофер Марлоу был найден зарезанным, но что послужило мотивом для этого убийства? Кристофер Марлоу был одним из самых выдающихся драматургов елизаветинской эпохи, повлиявшим на молодого Уильяма Шекспира. Его жизнь внезапно оборвалась, когда ему вонзили нож в глаз, но каковы были причины этого убийства? Был ли он убит протестантами, или его заставил замолчать Тайный Совет, или же Марлоу сфабриковал собственную смерть? Историческая реконструкция поможет нам найти ответ.
03. Король Эдуард II: Тайна смерти / King Edward II: A Mysterious Death
Его соперники замышляли заговор на фоне слухов о его сексуальных извращениях. Убит он был жестоким способом с помощью раскалённой кочерги, но так ли это было? Эксперты средневековой истории исследуют все материалы и вынесут свой вердикт.
04. Артур - герцог Британии: Мальчик не ставший королём / Arthur Of Brittany: The Boy Who Should Have Been King
Артур из Бретани: мальчик, который должен был стать королём. История помнит короля Джона, как жестокого злодея и коварного брата благородного короля Джона. Одним из его самых постыдных злодеяний было убийство своего племянника Артура из Бретани, чтобы не дать ему унаследовать трон. Но так ли это было? Эксперты средневековой истории исследуют все материалы и вынесут свой вердикт.
05. Эми Дадли: королева, её любовник и его жена / Amy Dudley: The Queen, Her Lover, And His Wife
Предположительно, Роберт Дадли был любовником королевы Елизаветы І и был женат на Эми Дадли до её безвременной кончины в 1560 году. Она была найдена мёртвой у себя дома в Оксфордшире. Была ли она убита для того, чтобы Роберт смог жениться на королеве? Руководствуясь историческими документами и трезвым взглядом, мы постараемся отделить правду от нашумевшего скандала.
06. Хуан Борджиа: Смерть в династии / Juan Borgia: A Death in The Dynasty
Борджиа - одна из самых кровавых и скандальных династий в истории, и самая дурная слава ходила о Джованни, который был найден мёртвым в 1497 году. Его отец, папа римский Александр VI, поклялся отыскать виновного в убийстве своего сына. Подозреваемых у него было предостаточно, так как Джованни нажил бесчисленное количество врагов, среди которых был и Чезаре Борджиа, его собственный брат. Мог ли Джованни быть убитым одним из членов его собственной семьи?
Скриншоты:

Дополнительные скриншоты:




[Цитировать]



Показать сообщения:    

Текущее время: 10-Дек 15:52

Часовой пояс: UTC + 3


Вы не можете начинать темы
Вы не можете отвечать на сообщения
Вы не можете редактировать свои сообщения
Вы не можете удалять свои сообщения
Вы не можете голосовать в опросах
Вы не можете прикреплять файлы к сообщениям
Вы не можете скачивать файлы

!ВНИМАНИЕ!
Сайт не предоставляет электронные версии произведений, а занимается лишь коллекционированием и каталогизацией ссылок, присылаемых и публикуемых на форуме нашими читателями. Если вы являетесь правообладателем какого-либо представленного материала и не желаете, чтобы ссылка на него находилась в нашем каталоге, свяжитесь с нами, и мы незамедлительно удалим ее. Файлы для обмена на трекере предоставлены пользователями сайта, и администрация не несет ответственности за их содержание. Просьба не заливать файлы, защищенные авторскими правами, а также файлы нелегального содержания!