[ Сегодня идет свободное скачивание без начисления Download ]


Статистика раздачи
Качаю: [ 1 ]
Скачал: [ 2 ]
 
   
 
Top  
 
 
Марко Поло / Marco Polo (2016 [H.264/720p-LQ]) WEB-DLRip (2 сезон, 0-10 серия) - Производство: США
Жанр: Драма, Приключения
Режиссер: Дэвид Петрарка
Актеры: Лоренцо Рикельми, Чин Хань, Махеш Джаду, Шу Ан Он, Ерден Телемисов, Ванесса Вандерстратен, Рик Юн, Николас Бладворт и др.
Описание:
Сюжет сериала основан на приключениях знаменитого исследователя Марко Поло в Китае в 13-м веке. Знаменитый исследователь оказался в центре жестокой войны, в мире боевых искусств, сексуальных интриг, грязной политики и нескончаемых сражений.

Релиз от: ALEXfilm
Продолжительность: 00:55:00 серия + нулевая серия ~ 00:28:00
Качество видео: WEB-DLRip
Перевод: Многоголосый закадровый, профессиональный
Озвучка / Автор перевода: Перевод: Константин Кривоногов/ Монтаж и сведение звука: Михаил Суслов, Михаил Шорыгин Роли озвучивали: Татьяна Манетина Михаил Суслов Сергей Пономарёв Владимир Курдов Андрей Стакионис
Видео: AVC/H.264, 1280x640, ~2 392 kbps avg
Аудио Rus: 48 kHz, AC3 Dolby Digital, 3/2 (L,C,R,l,r) + LFE ch, ~384.00 kbps
Аудио Eng: 48 kHz, AC3 Dolby Digital, 3/2 (L,C,R,l,r) + LFE ch, ~384.00 kbps

Mediainfo:

Формат : Matroska
Версия формата : Version 4 / Version 2
Размер файла : 549 Мбайт
Продолжительность : 28 м.
Общий поток : 2714 Кбит/сек
Название фильма : Marco Polo 2x00 @ AlexFilm
Дата кодирования : UTC 2016-01-04 13:40:45
Программа кодирования : mkvmerge v7.1.0 ('Good Love') 64bit built on Jul 27 2014 13:06:55
Библиотека кодирования : libebml v1.3.0 + libmatroska v1.4.1
Видео
Идентификатор : 1
Формат : AVC
Формат/Информация : Advanced Video Codec
Профиль формата : [url=mailto:[email protected]][email protected][/url]
Параметр CABAC формата : Да
Параметр ReFrames формата : 10 кадров
Идентификатор кодека : V_MPEG4/ISO/AVC
Продолжительность : 28 м.
Битрейт : 1892 Кбит/сек
Ширина : 1280 пикселей
Высота : 640 пикселей
Соотношение сторон : 2,000
Режим частоты кадров : Постоянный
Частота кадров : 23,976 кадра/сек
Цветовое пространство : YUV
Субдискретизация насыщенности : 4:2:0
Битовая глубина : 8 бит
Тип развёртки : Прогрессивная
Бит/(Пиксели*Кадры) : 0.096
Размер потока : 382 Мбайт (70%)
Библиотека кодирования : x264 core 148 r2638 7599210
Настройки программы : cabac=1 / ref=10 / deblock=1:-1:-1 / analyse=0x3:0x133 / me=umh / subme=10 / psy=1 / psy_rd=1.00:0.15 / mixed_ref=1 / me_range=24 / chroma_me=1 / trellis=2 / 8x8dct=1 / cqm=0 / deadzone=21,11 / fast_pskip=1 / chroma_qp_offset=-3 / threads=12 / lookahead_threads=2 / sliced_threads=0 / nr=0 / decimate=1 / interlaced=0 / bluray_compat=0 / constrained_intra=0 / bframes=8 / b_pyramid=2 / b_adapt=2 / b_bias=0 / direct=3 / weightb=1 / open_gop=0 / weightp=2 / keyint=240 / keyint_min=23 / scenecut=40 / intra_refresh=0 / rc_lookahead=60 / rc=crf / mbtree=1 / crf=18.0 / qcomp=0.60 / qpmin=0 / qpmax=69 / qpstep=4 / vbv_maxrate=62500 / vbv_bufsize=78125 / crf_max=0.0 / nal_hrd=none / filler=0 / ip_ratio=1.40 / aq=3:0.90
Язык : English
Default : Да
Forced : Нет
colour_range : Limited
Основные цвета : BT.709
Характеристики трансфера : BT.709
Коэффициенты матрицы : BT.709
Аудио #1
Идентификатор : 2
Формат : AC-3
Формат/Информация : Audio Coding 3
Расширение режима : CM (complete main)
Параметр Endianness формата : Big
Идентификатор кодека : A_AC3
Продолжительность : 28 м.
Вид битрейта : Постоянный
Битрейт : 384 Кбит/сек
Каналы : 6 каналов
Расположение каналов : Front: L C R, Side: L R, LFE
Частота : 48,0 КГц
Метод сжатия : С потерями
Размер потока : 77,6 Мбайт (14%)
Заголовок : DD5.1 AlexFilm
Язык : Russian / English
Default : Да
Forced : Нет
Аудио #2
Идентификатор : 3
Формат : AC-3
Формат/Информация : Audio Coding 3
Расширение режима : CM (complete main)
Параметр Endianness формата : Big
Идентификатор кодека : A_AC3
Продолжительность : 28 м.
Вид битрейта : Постоянный
Битрейт : 384 Кбит/сек
Каналы : 6 каналов
Расположение каналов : Front: L C R, Side: L R, LFE
Частота : 48,0 КГц
Метод сжатия : С потерями
Размер потока : 77,6 Мбайт (14%)
Заголовок : DD5.1 Original
Язык : English
Default : Нет
Forced : Нет
Скриншоты:

[Цитировать]



Показать сообщения:    

Текущее время: 04-Дек 15:11

Часовой пояс: UTC + 3


Вы не можете начинать темы
Вы не можете отвечать на сообщения
Вы не можете редактировать свои сообщения
Вы не можете удалять свои сообщения
Вы не можете голосовать в опросах
Вы не можете прикреплять файлы к сообщениям
Вы не можете скачивать файлы

!ВНИМАНИЕ!
Сайт не предоставляет электронные версии произведений, а занимается лишь коллекционированием и каталогизацией ссылок, присылаемых и публикуемых на форуме нашими читателями. Если вы являетесь правообладателем какого-либо представленного материала и не желаете, чтобы ссылка на него находилась в нашем каталоге, свяжитесь с нами, и мы незамедлительно удалим ее. Файлы для обмена на трекере предоставлены пользователями сайта, и администрация не несет ответственности за их содержание. Просьба не заливать файлы, защищенные авторскими правами, а также файлы нелегального содержания!