[ Сегодня идет свободное скачивание без начисления Download ]


Статистика раздачи
Скачал: [ 1 ]
 
   
 
Top  
 
 
Ottawan - серия "Золотые хиты дискотек" (2001) compilation - Год: 2001
Жанр: Disco
Издание: неоф. рус. Winner Music, V116
Продолжительность: 01:12:40
Кодек: FLAC
Битрейт: Lossless
Тип рипа: image + .cue
Сканы - *.tiff
Автор рипа: Gluck4012
Треклист:
01. You`re O.K 5:07
02. Zoo Zoo - (Bisquit) 6:12
03. Hands Up (Give Me Your Heart) 4:44
04. It`s All Music (It`s All Rock`n Roll) 3:33
05. A.I.E. Is My Song 3:22
06. Crazy Music 5:23
07. Shibidube Love 2:44
08. Help Get Me Some Help 4:23
09. Shalala Song 3:35
10. To Be Superman (Pam N`pat) 4:20
11. Sing Along With The Juke-Box 3:58
12. Siesta For Two 3:52
13. Doudou Rumba 3:26
14. Comme Aux U.S.A. 3:29
15. Tant Que Durera La Nuit 4:13
16. Musique Magique 5:24
17. D.I.S.C.O. 4:55

Графика:

Отчёт EAC:

Exact Audio Copy V1.1 from 23. June 2015
EAC extraction logfile from 14. July 2016, 15:10
Ottawan / Золотые Хиты Дискотек
Used drive  : HL-DT-STCD-RW GCE-8520B   Adapter: 1  ID: 2
Read mode               : Secure
Utilize accurate stream : Yes
Defeat audio cache      : Yes
Make use of C2 pointers : No
Read offset correction                      : 6
Overread into Lead-In and Lead-Out          : No
Fill up missing offset samples with silence : Yes
Delete leading and trailing silent blocks   : No
Null samples used in CRC calculations       : Yes
Used interface                              : Native Win32 interface for Win NT & 2000
Used output format              : User Defined Encoder
Selected bitrate                : 1024 kBit/s
Quality                         : High
Add ID3 tag                     : No
Command line compressor         : C:\Program Files (x86)\Exact Audio Copy\Flac\flac.exe
Additional command line options : -8 -V -T "TITLE=%title%" -T "ARTIST=%artist%" -T "ALBUMARTIST=%albumartist%" -T "ALBUM=%albumtitle%" -T "DATE=%year%" -T "TRACKNUMBER=%tracknr%" -T "TRACKTOTAL=%numtracks%" -T "GENRE=%genre%" -T "COMMENT=%comment%" -T "PERFORMER=%albuminterpret%" -T "COMPOSER=%composer%" %source% -o %dest%
TOC of the extracted CD
     Track |   Start  |  Length  | Start sector | End sector
    ---------------------------------------------------------
        1  |  0:00.00 |  5:06.61 |         0    |    23010
        2  |  5:06.61 |  6:11.56 |     23011    |    50891
        3  | 11:18.42 |  4:43.70 |     50892    |    72186
        4  | 16:02.37 |  3:33.19 |     72187    |    88180
        5  | 19:35.56 |  3:22.28 |     88181    |   103358
        6  | 22:58.09 |  5:22.67 |    103359    |   127575
        7  | 28:21.01 |  2:43.41 |    127576    |   139841
        8  | 31:04.42 |  4:22.48 |    139842    |   159539
        9  | 35:27.15 |  3:35.00 |    159540    |   175664
       10  | 39:02.15 |  4:20.19 |    175665    |   195183
       11  | 43:22.34 |  3:57.47 |    195184    |   213005
       12  | 47:20.06 |  3:52.27 |    213006    |   230432
       13  | 51:12.33 |  3:26.24 |    230433    |   245906
       14  | 54:38.57 |  3:28.73 |    245907    |   261579
       15  | 58:07.55 |  4:13.13 |    261580    |   280567
       16  | 62:20.68 |  5:23.62 |    280568    |   304854
       17  | 67:44.55 |  4:55.11 |    304855    |   326990
Range status and errors
Selected range
     Filename N:\HD Music\Ottawan - Золотые Хиты Дискотек.wav
     Peak level 96.6 %
     Extraction speed 8.8 X
     Range quality 100.0 %
     Test CRC EC949B69
     Copy CRC EC949B69
     Copy OK
No errors occurred
AccurateRip summary
Track  1  not present in database
Track  2  not present in database
Track  3  not present in database
Track  4  not present in database
Track  5  not present in database
Track  6  not present in database
Track  7  not present in database
Track  8  not present in database
Track  9  not present in database
Track 10  not present in database
Track 11  not present in database
Track 12  not present in database
Track 13  not present in database
Track 14  not present in database
Track 15  not present in database
Track 16  not present in database
Track 17  not present in database
None of the tracks are present in the AccurateRip database
End of status report
---- CUETools DB Plugin V2.1.6
[CTDB TOCID: waM795sJsPI0xN5qKkO9i9l5XBA-] found
Submit result: waM795sJsPI0xN5qKkO9i9l5XBA- has been uploaded
Track | CTDB Status
  1   | (1/1) Accurately ripped
  2   | (1/1) Accurately ripped
  3   | (1/1) Accurately ripped
  4   | (1/1) Accurately ripped
  5   | (1/1) Accurately ripped
  6   | (1/1) Accurately ripped
  7   | (1/1) Accurately ripped
  8   | (1/1) Accurately ripped
  9   | (1/1) Accurately ripped
10   | (1/1) Accurately ripped
11   | (1/1) Accurately ripped
12   | (1/1) Accurately ripped
13   | (1/1) Accurately ripped
14   | (1/1) Accurately ripped
15   | (0/1) No match
16   | (1/1) Accurately ripped
17   | (1/1) Accurately ripped
==== Log checksum F4B87F70D418CD5CDFBC21207630031B2AB08D0C7463A2062D7242CEF26304AA ====

Cue Sheet (.cue):

REM GENRE Disco
REM DATE 2001
REM DISCID F4110711
REM COMMENT "ExactAudioCopy v1.1"
PERFORMER "Ottawan"
TITLE "Золотые Хиты Дискотек"
FILE "Ottawan - Золотые Хиты Дискотек.flac" WAVE
  TRACK 01 AUDIO
    TITLE "You`re O.K"
    PERFORMER "Ottawan"
    INDEX 01 00:00:00
  TRACK 02 AUDIO
    TITLE "Zoo Zoo - (Bisquit)"
    PERFORMER "Ottawan"
    INDEX 01 05:06:61
  TRACK 03 AUDIO
    TITLE "Hands Up (Give Me Your Heart)"
    PERFORMER "Ottawan"
    INDEX 01 11:18:42
  TRACK 04 AUDIO
    TITLE "It`s All Music (It`s All Rock`n Roll)"
    PERFORMER "Ottawan"
    INDEX 01 16:02:37
  TRACK 05 AUDIO
    TITLE "A.I.E. Is My Song"
    PERFORMER "Ottawan"
    INDEX 01 19:35:56
  TRACK 06 AUDIO
    TITLE "Crazy Music"
    PERFORMER "Ottawan"
    INDEX 01 22:58:09
  TRACK 07 AUDIO
    TITLE "Shibidube Love"
    PERFORMER "Ottawan"
    INDEX 01 28:21:01
  TRACK 08 AUDIO
    TITLE "Help Get Me Some Help"
    PERFORMER "Ottawan"
    INDEX 01 31:04:42
  TRACK 09 AUDIO
    TITLE "Shalala Song"
    PERFORMER "Ottawan"
    INDEX 01 35:27:15
  TRACK 10 AUDIO
    TITLE "To Be Superman (Pam N`pat)"
    PERFORMER "Ottawan"
    INDEX 01 39:02:15
  TRACK 11 AUDIO
    TITLE "Sing Along With The Juke-Box"
    PERFORMER "Ottawan"
    INDEX 01 43:22:34
  TRACK 12 AUDIO
    TITLE "Siesta For Two"
    PERFORMER "Ottawan"
    INDEX 01 47:20:06
  TRACK 13 AUDIO
    TITLE "Doudou Rumba"
    PERFORMER "Ottawan"
    INDEX 01 51:12:33
  TRACK 14 AUDIO
    TITLE "Comme Aux U.S.A."
    PERFORMER "Ottawan"
    INDEX 01 54:38:57
  TRACK 15 AUDIO
    TITLE "Tant Que Durera La Nuit"
    PERFORMER "Ottawan"
    INDEX 01 58:07:55
  TRACK 16 AUDIO
    TITLE "Musique Magique"
    PERFORMER "Ottawan"
    INDEX 01 62:20:68
  TRACK 17 AUDIO
    TITLE "D.I.S.C.O."
    PERFORMER "Ottawan"
    INDEX 01 67:44:55

Отчёт auCDtect Task manager:

-----------------------
DON'T MODIFY THIS FILE
-----------------------
PERFORMER: auCDtect Task Manager, ver. 1.6.0 RC1 build 1.6.0.1
Copyright (c) 2008-2010 y-soft. All rights reserved
http://y-soft.org
ANALYZER: auCDtect: CD records authenticity detector, version 0.8.2
Copyright (c) 2004 Oleg Berngardt. All rights reserved.
Copyright (c) 2004 Alexander Djourik. All rights reserved.
FILE: Ottawan - Золотые Хиты Дискотек.flac
  Size: 501918739 Hash: 767BB4F8D87238C8CF4D2B642399BB62 Accuracy: -m0
  Conclusion: CDDA 100%
  Signature: 8B965687EDEBF0B13592836518F65F87C4D9B6F8

Спектрограмма:

[Цитировать]



Показать сообщения:    

Текущее время: 09-Дек 16:33

Часовой пояс: UTC + 3


Вы не можете начинать темы
Вы не можете отвечать на сообщения
Вы не можете редактировать свои сообщения
Вы не можете удалять свои сообщения
Вы не можете голосовать в опросах
Вы не можете прикреплять файлы к сообщениям
Вы не можете скачивать файлы

!ВНИМАНИЕ!
Сайт не предоставляет электронные версии произведений, а занимается лишь коллекционированием и каталогизацией ссылок, присылаемых и публикуемых на форуме нашими читателями. Если вы являетесь правообладателем какого-либо представленного материала и не желаете, чтобы ссылка на него находилась в нашем каталоге, свяжитесь с нами, и мы незамедлительно удалим ее. Файлы для обмена на трекере предоставлены пользователями сайта, и администрация не несет ответственности за их содержание. Просьба не заливать файлы, защищенные авторскими правами, а также файлы нелегального содержания!