[ Сегодня идет свободное скачивание без начисления Download ]


Статистика раздачи
Скачал: [ 2 ]
 
   
 
Top  
 
 
Преступник / Criminal (2016) Год выпуска: 2016
Страна: Великобритания, США
Жанр: фантастика, боевик, триллер, драма, криминал, детектив
Продолжительность:
Перевод: Профессиональный (полное дублирование)[iTunes]
Субтитры: нет
Режиссер: Ариэль Вромен / Ariel Vromen
В ролях: Кевин Костнер, Гари Олдман, Томми Ли Джонс, Райан Рейнольдс, Элис Ив, Галь Гадот, Хорди Молья, Майкл Питт, Амори Ноласко, Антье Трауэ
Описание: В последней отчаянной попытке остановить катастрофу мирового масштаба генетики осуществляют невероятную операцию по вживлению воспоминаний и умений погибшего оперативника ЦРУ в тело опасного заключенного с надеждой, что тот доведет до конца прерванную миссию агента.
Качество видео: WEB-DLRip-AVC
Формат видео: MKV
Видео: 1024х428, 25 fps, AVC ~2200 kbps avg
Аудио: 48 kHz, AC3 Dolby Digital, 3/2 (L,C,R,l,r) + LFE ch, ~384 kbps

Скриншоты

МедиаИнфо

ПреступникPrestupnik_2016_AVC_WEB-DLRip_[scarabey.org].mkv
Format : Matroska
Format version : Version 2
File size : 1.96 GiB
Duration : 1h 48mn
Overall bit rate : 2 585 Kbps
Encoded date : UTC 2016-07-13 19:18:07
Writing application : mkvmerge v6.1.0 ('Old Devil') built on Mar 4 2013 09:10:42
Writing library : libebml v1.3.0 + libmatroska v1.4.0
Video
ID : 1
Format : AVC
Format/Info : Advanced Video Codec
Format profile : [email protected]
Format settings, CABAC : Yes
Format settings, ReFrames : 10 frames
Codec ID : V_MPEG4/ISO/AVC
Duration : 1h 48mn
Bit rate : 2 200 Kbps
Width : 1 024 pixels
Height : 428 pixels
Display aspect ratio : 2.35:1
Original display aspect ratio : 2.35:1
Frame rate mode : Constant
Frame rate : 25.000 fps
Color space : YUV
Chroma subsampling : 4:2:0
Bit depth : 8 bits
Scan type : Progressive
Bits/(Pixel*Frame) : 0.201
Stream size : 1.63 GiB (83%)
Writing library : x264 core 148 r2597 e86f3a1
Encoding settings : cabac=1 / ref=10 / deblock=1:-3:-2 / analyse=0x3:0x113 / me=umh / subme=10 / psy=1 / psy_rd=1.00:0.00 / mixed_ref=1 / me_range=32 / chroma_me=1 / trellis=2 / 8x8dct=1 / cqm=0 / deadzone=21,11 / fast_pskip=1 / chroma_qp_offset=-2 / threads=12 / lookahead_threads=2 / sliced_threads=0 / nr=0 / decimate=0 / interlaced=0 / bluray_compat=0 / constrained_intra=0 / bframes=8 / b_pyramid=2 / b_adapt=2 / b_bias=0 / direct=3 / weightb=1 / open_gop=0 / weightp=2 / keyint=250 / keyint_min=25 / scenecut=40 / intra_refresh=0 / rc_lookahead=40 / rc=2pass / mbtree=1 / bitrate=2200 / ratetol=1.0 / qcomp=0.60 / qpmin=0 / qpmax=69 / qpstep=4 / cplxblur=20.0 / qblur=0.5 / ip_ratio=1.40 / aq=1:1.00
Default : Yes
Forced : No
Audio
ID : 2
Format : AC-3
Format/Info : Audio Coding 3
Mode extension : CM (complete main)
Format settings, Endianness : Big
Codec ID : A_AC3
Duration : 1h 48mn
Bit rate mode : Constant
Bit rate : 384 Kbps
Channel(s) : 6 channels
Channel positions : Front: L C R, Side: L R, LFE
Sampling rate : 48.0 KHz
Bit depth : 16 bits
Compression mode : Lossy
Stream size : 298 MiB (15%)
Default : Yes
Forced : No

[Цитировать]



Показать сообщения:    

Текущее время: 05-Дек 19:41

Часовой пояс: UTC + 3


Вы не можете начинать темы
Вы не можете отвечать на сообщения
Вы не можете редактировать свои сообщения
Вы не можете удалять свои сообщения
Вы не можете голосовать в опросах
Вы не можете прикреплять файлы к сообщениям
Вы не можете скачивать файлы

!ВНИМАНИЕ!
Сайт не предоставляет электронные версии произведений, а занимается лишь коллекционированием и каталогизацией ссылок, присылаемых и публикуемых на форуме нашими читателями. Если вы являетесь правообладателем какого-либо представленного материала и не желаете, чтобы ссылка на него находилась в нашем каталоге, свяжитесь с нами, и мы незамедлительно удалим ее. Файлы для обмена на трекере предоставлены пользователями сайта, и администрация не несет ответственности за их содержание. Просьба не заливать файлы, защищенные авторскими правами, а также файлы нелегального содержания!