[ Сегодня идет свободное скачивание без начисления Download ]


Статистика раздачи
Скачал: [ 1 ]
 
   
 
Top  
 
 
Bananarama - The Greatest Hits Collection (1999) Compilation - Год: 1999
Жанр: Europop, Euro House, Synth-pop
Издание: London Records
Продолжительность: 01:18:22
Кодек: FLAC
Битрейт: Lossless
Тип рипа: image + .cue
Треклист:
01. Venus 3:42
02. I Heard A Rumour 3:27
03. Love In The First Degree 3:31
04. I Can't Help It 3:31
05. I Want You Back 3:49
06. Love, Truth And Honesty 3:29
07. Nathan Jones 3:21
08. Really Saying Something 2:44
09. Shy Boy 3:15
10. Robert De Niro's Waiting 3:32
11. Cruel Summer 3:31
12. It Ain't What You Do 2:49
13. Na Na Hey Hey (Kiss Him Goodbye) 3:26
14. Rough Justice 3:39
15. Trick Of The Night 4:09
16. Aie A Mwana 3:35
17. Venus (Maxi Hellfire Mix) 9:22
18. Love In The First Degree (Eurobeat Style Mix) 7:18
19. Preacher Man (Single Mix) 3:16
20. Help (With Lananeeneenoonoo) 2:56

Отчёт EAC:

Exact Audio Copy V1.1 from 23. June 2015
EAC extraction logfile from 14. July 2016, 17:27
Bananarama / Greatest Hits Collection
Used drive  : HL-DT-STCD-RW GCE-8520B   Adapter: 1  ID: 2
Read mode               : Secure
Utilize accurate stream : Yes
Defeat audio cache      : Yes
Make use of C2 pointers : No
Read offset correction                      : 6
Overread into Lead-In and Lead-Out          : No
Fill up missing offset samples with silence : Yes
Delete leading and trailing silent blocks   : No
Null samples used in CRC calculations       : Yes
Used interface                              : Native Win32 interface for Win NT & 2000
Used output format              : User Defined Encoder
Selected bitrate                : 1024 kBit/s
Quality                         : High
Add ID3 tag                     : No
Command line compressor         : C:\Program Files (x86)\Exact Audio Copy\Flac\flac.exe
Additional command line options : -8 -V -T "TITLE=%title%" -T "ARTIST=%artist%" -T "ALBUMARTIST=%albumartist%" -T "ALBUM=%albumtitle%" -T "DATE=%year%" -T "TRACKNUMBER=%tracknr%" -T "TRACKTOTAL=%numtracks%" -T "GENRE=%genre%" -T "COMMENT=%comment%" -T "PERFORMER=%albuminterpret%" -T "COMPOSER=%composer%" %source% -o %dest%
TOC of the extracted CD
     Track |   Start  |  Length  | Start sector | End sector
    ---------------------------------------------------------
        1  |  0:00.00 |  3:42.20 |         0    |    16669
        2  |  3:42.20 |  3:26.65 |     16670    |    32184
        3  |  7:09.10 |  3:31.12 |     32185    |    48021
        4  | 10:40.22 |  3:30.60 |     48022    |    63831
        5  | 14:11.07 |  3:49.18 |     63832    |    81024
        6  | 18:00.25 |  3:28.45 |     81025    |    96669
        7  | 21:28.70 |  3:20.45 |     96670    |   111714
        8  | 24:49.40 |  2:43.55 |    111715    |   123994
        9  | 27:33.20 |  3:15.22 |    123995    |   138641
       10  | 30:48.42 |  3:32.10 |    138642    |   154551
       11  | 34:20.52 |  3:30.73 |    154552    |   170374
       12  | 37:51.50 |  2:49.07 |    170375    |   183056
       13  | 40:40.57 |  3:26.05 |    183057    |   198511
       14  | 44:06.62 |  3:38.70 |    198512    |   214931
       15  | 47:45.57 |  4:08.58 |    214932    |   233589
       16  | 51:54.40 |  3:34.72 |    233590    |   249711
       17  | 55:29.37 |  9:22.03 |    249712    |   291864
       18  | 64:51.40 |  7:17.62 |    291865    |   324701
       19  | 72:09.27 |  3:15.68 |    324702    |   339394
       20  | 75:25.20 |  2:56.36 |    339395    |   352630
Range status and errors
Selected range
     Filename N:\HD Music\Bananarama - Greatest Hits Collection\Bananarama - Greatest Hits Collection.wav
     Peak level 99.3 %
     Extraction speed 8.7 X
     Range quality 99.9 %
     Test CRC 6D0A0555
     Copy CRC 6D0A0555
     Copy OK
No errors occurred
AccurateRip summary
Track  1  not present in database
Track  2  not present in database
Track  3  not present in database
Track  4  not present in database
Track  5  not present in database
Track  6  not present in database
Track  7  not present in database
Track  8  not present in database
Track  9  not present in database
Track 10  not present in database
Track 11  not present in database
Track 12  not present in database
Track 13  not present in database
Track 14  not present in database
Track 15  not present in database
Track 16  not present in database
Track 17  not present in database
Track 18  not present in database
Track 19  not present in database
Track 20  not present in database
None of the tracks are present in the AccurateRip database
End of status report
---- CUETools DB Plugin V2.1.6
[CTDB TOCID: TL9kQwCVZBSFNdfkuKtjsMWn2mI-] disk not present in database
Submit result: TL9kQwCVZBSFNdfkuKtjsMWn2mI- has been uploaded
==== Log checksum 1ECBC6C55731503E9D048E4D0097C247AB58E9E387263247FA1092A616EF02A6 ====

Cue Sheet (.cue):

REM GENRE Pop
REM DATE 1999
REM DISCID 0C125D14
REM COMMENT "ExactAudioCopy v1.1"
PERFORMER "Bananarama"
TITLE "Greatest Hits Collection"
FILE "Bananarama - Greatest Hits Collection.flac" WAVE
  TRACK 01 AUDIO
    TITLE "Venus"
    PERFORMER "Bananarama"
    INDEX 01 00:00:00
  TRACK 02 AUDIO
    TITLE "I Heard A Rumour"
    PERFORMER "Bananarama"
    INDEX 01 03:42:20
  TRACK 03 AUDIO
    TITLE "Love In The First Degree"
    PERFORMER "Bananarama"
    INDEX 01 07:09:10
  TRACK 04 AUDIO
    TITLE "I Can't Help It"
    PERFORMER "Bananarama"
    INDEX 01 10:40:22
  TRACK 05 AUDIO
    TITLE "I Want You Back"
    PERFORMER "Bananarama"
    INDEX 01 14:11:07
  TRACK 06 AUDIO
    TITLE "Love, Truth And Honesty"
    PERFORMER "Bananarama"
    INDEX 01 18:00:25
  TRACK 07 AUDIO
    TITLE "Nathan Jones"
    PERFORMER "Bananarama"
    INDEX 01 21:28:70
  TRACK 08 AUDIO
    TITLE "Really Saying Something"
    PERFORMER "Bananarama"
    INDEX 01 24:49:40
  TRACK 09 AUDIO
    TITLE "Shy Boy"
    PERFORMER "Bananarama"
    INDEX 01 27:33:20
  TRACK 10 AUDIO
    TITLE "Robert De Niro's Waiting"
    PERFORMER "Bananarama"
    INDEX 01 30:48:42
  TRACK 11 AUDIO
    TITLE "Cruel Summer"
    PERFORMER "Bananarama"
    INDEX 01 34:20:52
  TRACK 12 AUDIO
    TITLE "It Ain't What You Do"
    PERFORMER "Bananarama"
    INDEX 01 37:51:50
  TRACK 13 AUDIO
    TITLE "Na Na Hey Hey (Kiss Him Goodbye)"
    PERFORMER "Bananarama"
    INDEX 01 40:40:57
  TRACK 14 AUDIO
    TITLE "Rough Justice"
    PERFORMER "Bananarama"
    INDEX 01 44:06:62
  TRACK 15 AUDIO
    TITLE "Trick Of The Night"
    PERFORMER "Bananarama"
    INDEX 01 47:45:57
  TRACK 16 AUDIO
    TITLE "Aie A Mwana"
    PERFORMER "Bananarama"
    INDEX 01 51:54:40
  TRACK 17 AUDIO
    TITLE "Venus (Maxi Hellfire Mix)"
    PERFORMER "Bananarama"
    INDEX 01 55:29:37
  TRACK 18 AUDIO
    TITLE "Love In The First Degree (Eurobeat Style Mix)"
    PERFORMER "Bananarama"
    INDEX 01 64:51:40
  TRACK 19 AUDIO
    TITLE "Preacher Man (Single Mix)"
    PERFORMER "Bananarama"
    INDEX 01 72:09:27
  TRACK 20 AUDIO
    TITLE "Help (With Lananeeneenoonoo)"
    PERFORMER "Bananarama"
    INDEX 01 75:25:20

Отчёт auCDtect Task manager:

-----------------------
DON'T MODIFY THIS FILE
-----------------------
PERFORMER: auCDtect Task Manager, ver. 1.6.0 RC1 build 1.6.0.1
Copyright (c) 2008-2010 y-soft. All rights reserved
http://y-soft.org
ANALYZER: auCDtect: CD records authenticity detector, version 0.8.2
Copyright (c) 2004 Oleg Berngardt. All rights reserved.
Copyright (c) 2004 Alexander Djourik. All rights reserved.
FILE: Bananarama - Greatest Hits Collection.flac
  Size: 587633016 Hash: D50BFAF7AD0C4E2BDA8837648E9E987E Accuracy: -m0
  Conclusion: MPEG 95%
  Signature: 4FCB17042B87A092E948D70AF972C68CF687A949

Спектрограмма:

[Цитировать]



Показать сообщения:    

Текущее время: 09-Дек 08:44

Часовой пояс: UTC + 3


Вы не можете начинать темы
Вы не можете отвечать на сообщения
Вы не можете редактировать свои сообщения
Вы не можете удалять свои сообщения
Вы не можете голосовать в опросах
Вы не можете прикреплять файлы к сообщениям
Вы не можете скачивать файлы

!ВНИМАНИЕ!
Сайт не предоставляет электронные версии произведений, а занимается лишь коллекционированием и каталогизацией ссылок, присылаемых и публикуемых на форуме нашими читателями. Если вы являетесь правообладателем какого-либо представленного материала и не желаете, чтобы ссылка на него находилась в нашем каталоге, свяжитесь с нами, и мы незамедлительно удалим ее. Файлы для обмена на трекере предоставлены пользователями сайта, и администрация не несет ответственности за их содержание. Просьба не заливать файлы, защищенные авторскими правами, а также файлы нелегального содержания!