[ Сегодня идет свободное скачивание без начисления Download ]


Статистика раздачи
Нет
 
   
 
Top  
 
 
Добро пожаловать в рай! / Into the Blue (2005) BDRip 720p Информация о фильме
Название: Добро пожаловать в рай!
Оригинальное название: Into the Blue
Год выхода: 2005
Жанр: боевик, триллер, криминал, приключения
Режиссер: Джон Стокуэлл
В ролях:
Пол Уокер — Джаред, Джессика Альба — Сэм, Скотт Каан — Брайс, Эшли Скотт — Аманда, Джош Бролин — Бейтс, Джеймс Фрейн — Рейес, Тайсон Бекфорд — Примо, Дуэйн Эдвэй — Рой, Джэвон Фрейзер — Дэнни.
О фильме:
Из пункта «А» в пункт «Б» летел небольшой частный самолетик и во время грозы потерпел аварию, где-то в акватории Багамских островов… Как раз в тех местах, где молодой парень Джаред, инструктор по дайвингу, мечтает в свободное от службы время о будущей лучшей жизни вместе со своей подружкой Самантой, которая работает в местном аквапарке.
В гости к ним приезжают Брайс, давний приятель Джареда, и тоже с подружкой — Амандой. Весело проводя время на земле и на море, они в ходе очередного заплыва на глубину натыкаются на затонувший самолет, полный аккуратно запечатанных мешочков, как выяснится, с кокаином…
С этой минуты начинаются для четверых друзей настоящие приключения, с погонями и предательством, с поединком, где выигравший получает жизнь…

Страна: США
Студия: Columbia Pictures Corporation, Metro-Goldwyn-Mayer (MGM), Mandalay Pictures
Продолжительность: 01:50:13
Перевод: Дублированный, Профессиональный двухголосый, Авторский одноголосый, Оригинал
Файл
Кодек: x264
Качество: BDRip 720p
Видео: 1280x542 (2,35:1), 23.976 fps, 4879 kbps
Звук:
Аудио #1: AC3, 448 Kbps, 48.0 KHz, 6 ch (Rus) Дублированный, Мосфильм-Мастер
Аудио #2: AC3, 384 Kbps, 48.0 KHz, 6 ch (Rus) Профессиональный двухголосый
Аудио #3: AC3, 448 Kbps, 48.0 KHz, 6 ch (Ukr) Профессиональный двухголосый, 1+1
Аудио #4: AC3, 448 Kbps, 48.0 KHz, 6 ch (Rus) Авторский одноголосый, А.Гаврилов
Аудио #5: AC3, 448 Kbps, 48.0 KHz, 6 ch (Rus) Авторский одноголосый, Ю.Немахов
Аудио #6: AC3, 448 Kbps, 48.0 KHz, 6 ch (Eng) Оригинал
Субтитры: Русские, Украинские, Английские

Скриншоты


MediaInfo

Формат : Matroska
Версия формата : Version 2
Размер файла : 5,89 Гбайт
Продолжительность : 1 ч. 50 м.
Общий поток : 7655 Кбит/сек
Дата кодирования : UTC 2016-06-14 11:59:08
Программа кодирования : mkvmerge v5.4.0 ('Piper') built on Mar 10 2012 13:34:39
Библиотека кодирования : libebml v1.2.3 + libmatroska v1.3.0
Видео
Идентификатор : 1
Формат : AVC
Формат/Информация : Advanced Video Codec
Профиль формата : High@L4.1
Параметр CABAC формата : Да
Параметр ReFrames формата : 9 кадров
Идентификатор кодека : V_MPEG4/ISO/AVC
Продолжительность : 1 ч. 50 м.
Битрейт : 4879 Кбит/сек
Ширина : 1280 пикселей
Высота : 542 пикселя
Соотношение сторон : 2,35:1
Режим частоты кадров : Постоянный
Частота кадров : 23,976 кадра/сек
Цветовое пространство : YUV
Субдискретизация насыщенности : 4:2:0
Битовая глубина : 8 бит
Тип развёртки : Прогрессивная
Бит/(Пиксели*Кадры) : 0.293
Размер потока : 3,76 Гбайт (64%)
Заголовок : Into the Blue / Добро пожаловать в рай! (2005)
Библиотека кодирования : x264 core 146 r2538 121396c
Настройки программы : cabac=1 / ref=9 / deblock=1:-1:-1 / analyse=0x3:0x113 / me=umh / subme=10 / psy=1 / psy_rd=1.00:0.15 / mixed_ref=1 / me_range=32 / chroma_me=1 / trellis=2 / 8x8dct=1 / cqm=0 / deadzone=21,11 / fast_pskip=1 / chroma_qp_offset=-3 / threads=6 / lookahead_threads=1 / sliced_threads=0 / nr=0 / decimate=1 / interlaced=0 / bluray_compat=0 / constrained_intra=0 / bframes=7 / b_pyramid=2 / b_adapt=2 / b_bias=0 / direct=1 / weightb=1 / open_gop=0 / weightp=2 / keyint=230 / keyint_min=23 / scenecut=40 / intra_refresh=0 / rc_lookahead=40 / rc=crf / mbtree=0 / crf=19.5 / qcomp=0.60 / qpmin=0 / qpmax=69 / qpstep=4 / vbv_maxrate=40000 / vbv_bufsize=50000 / crf_max=0.0 / nal_hrd=none / filler=0 / ip_ratio=1.40 / pb_ratio=1.30 / aq=1:1.00
Язык : English
Default : Да
Forced : Нет
Аудио #1
Идентификатор : 2
Формат : AC-3
Формат/Информация : Audio Coding 3
Расширение режима : CM (complete main)
Параметр Endianness формата : Big
Идентификатор кодека : A_AC3
Продолжительность : 1 ч. 50 м.
Вид битрейта : Постоянный
Битрейт : 448 Кбит/сек
Каналы : 6 каналов
Расположение каналов : Front: L C R, Side: L R, LFE
Частота : 48,0 КГц
Битовая глубина : 16 бит
Метод сжатия : С потерями
Размер потока : 353 Мбайт (6%)
Заголовок : DUB (Russian) Мосфильм-Мастер
Язык : Russian
Default : Да
Forced : Нет
Аудио #2
Идентификатор : 3
Формат : AC-3
Формат/Информация : Audio Coding 3
Расширение режима : CM (complete main)
Параметр Endianness формата : Big
Идентификатор кодека : A_AC3
Продолжительность : 1 ч. 50 м.
Вид битрейта : Постоянный
Битрейт : 384 Кбит/сек
Каналы : 6 каналов
Расположение каналов : Front: L C R, Side: L R, LFE
Частота : 48,0 КГц
Битовая глубина : 16 бит
Метод сжатия : С потерями
Размер потока : 303 Мбайт (5%)
Заголовок : DVO (Russian)
Язык : Russian
Default : Нет
Forced : Нет
Аудио #3
Идентификатор : 4
Формат : AC-3
Формат/Информация : Audio Coding 3
Расширение режима : CM (complete main)
Параметр Endianness формата : Big
Идентификатор кодека : A_AC3
Продолжительность : 1 ч. 50 м.
Вид битрейта : Постоянный
Битрейт : 448 Кбит/сек
Каналы : 6 каналов
Расположение каналов : Front: L C R, Side: L R, LFE
Частота : 48,0 КГц
Битовая глубина : 16 бит
Метод сжатия : С потерями
Размер потока : 353 Мбайт (6%)
Заголовок : DVO (Ukrainian) 1+1
Язык : Ukrainian
Default : Нет
Forced : Нет
Аудио #4
Идентификатор : 5
Формат : AC-3
Формат/Информация : Audio Coding 3
Расширение режима : CM (complete main)
Параметр Endianness формата : Big
Идентификатор кодека : A_AC3
Продолжительность : 1 ч. 50 м.
Вид битрейта : Постоянный
Битрейт : 448 Кбит/сек
Каналы : 6 каналов
Расположение каналов : Front: L C R, Side: L R, LFE
Частота : 48,0 КГц
Битовая глубина : 16 бит
Метод сжатия : С потерями
Размер потока : 353 Мбайт (6%)
Заголовок : AVO (A.Гаврилов)
Язык : Russian
Default : Нет
Forced : Нет
Аудио #5
Идентификатор : 6
Формат : AC-3
Формат/Информация : Audio Coding 3
Расширение режима : CM (complete main)
Параметр Endianness формата : Big
Идентификатор кодека : A_AC3
Продолжительность : 1 ч. 50 м.
Вид битрейта : Постоянный
Битрейт : 448 Кбит/сек
Каналы : 6 каналов
Расположение каналов : Front: L C R, Side: L R, LFE
Частота : 48,0 КГц
Битовая глубина : 16 бит
Метод сжатия : С потерями
Размер потока : 353 Мбайт (6%)
Заголовок : AVO (Ю.Немахов)
Язык : Russian
Default : Нет
Forced : Нет
Аудио #6
Идентификатор : 7
Формат : AC-3
Формат/Информация : Audio Coding 3
Расширение режима : CM (complete main)
Параметр Endianness формата : Big
Идентификатор кодека : A_AC3
Продолжительность : 1 ч. 50 м.
Вид битрейта : Постоянный
Битрейт : 448 Кбит/сек
Каналы : 6 каналов
Расположение каналов : Front: L C R, Side: L R, LFE
Частота : 48,0 КГц
Битовая глубина : 16 бит
Метод сжатия : С потерями
Размер потока : 353 Мбайт (6%)
Заголовок : Original (English)
Язык : English
Default : Нет
Forced : Нет
Текст #1
Идентификатор : 8
Формат : UTF-8
Идентификатор кодека : S_TEXT/UTF8
Идентификатор кодека/Информация : UTF-8 Plain Text
Заголовок : Rus
Язык : Russian
Default : Нет
Forced : Нет
Текст #2
Идентификатор : 9
Формат : UTF-8
Идентификатор кодека : S_TEXT/UTF8
Идентификатор кодека/Информация : UTF-8 Plain Text
Заголовок : Ukr
Язык : Ukrainian
Default : Нет
Forced : Нет
Текст #3
Идентификатор : 10
Формат : UTF-8
Идентификатор кодека : S_TEXT/UTF8
Идентификатор кодека/Информация : UTF-8 Plain Text
Заголовок : Eng
Язык : English
Default : Нет
Forced : Нет

[Цитировать]



Показать сообщения:    

Текущее время: 29-Май 02:31

Часовой пояс: UTC + 6


Вы не можете начинать темы
Вы не можете отвечать на сообщения
Вы не можете редактировать свои сообщения
Вы не можете удалять свои сообщения
Вы не можете голосовать в опросах
Вы не можете прикреплять файлы к сообщениям
Вы не можете скачивать файлы

!ВНИМАНИЕ!
Сайт не предоставляет электронные версии произведений, а занимается лишь коллекционированием и каталогизацией ссылок, присылаемых и публикуемых на форуме нашими читателями. Если вы являетесь правообладателем какого-либо представленного материала и не желаете, чтобы ссылка на него находилась в нашем каталоге, свяжитесь с нами, и мы незамедлительно удалим ее. Файлы для обмена на трекере предоставлены пользователями сайта, и администрация не несет ответственности за их содержание. Просьба не заливать файлы, защищенные авторскими правами, а также файлы нелегального содержания!