[ Сегодня идет свободное скачивание без начисления Download ]


Статистика раздачи
Нет
 
   
 
Top  
 
 
Чернокнижник 2: Армагеддон / Warlock: The Armageddon
«Он пришел из другого мира, чтобы разрушить этот»
?Год выпуска: 1993
?Страна: США
?Производство: Tapestry Films, Trimark Pictures
?Жанр: Ужасы, фэнтези
?Режиссёр: Энтони Хикокс
?В ролях: Джулиан Сэндс, Крис Янг, Пола Маршалл, Джоанна Пакула, Стив Кэхэн, Р.Г. Армстронг, Чарльз Хэллахан, Брюс Гловер, Крэйг Хёрли, Дэвис Гейнс
?Перевод: Авторский (одноголосый)
?Озвучка: Володарский
?Субтитры: Отсутствуют
?Описание: Чернокнижник, единственный сын Сатаны, вернулся, чтобы найти шесть магических камней, которые были потеряны на протяжении веков. Вместе эти камни создают страшную силу, которая отдает мир во власть Сатаны. В распоряжении Чернокнижника только 7 дней (между солнечным и лунным затмениями), и он неумолим в своих поисках...

?Качество: DVDRip
?Продолжительность: 01:37:55 час.
?Формат: AVI
?Видео кодек: XviD
?Аудио кодек: AC3
?Видео: 704x368 (1.91:1), 23.976 fps, XviD MPEG-4 ~1793 kbps avg, 0.29 bit/pixel
?Аудио: 48 kHz, AC3 Dolby Digital, 2/0 (L,R) ch, ~192 kbps

MediaInfo

General
Complete name : D:\фильмы\Chernoknizgnik.DVDRip.2.avi
Format : AVI
Format/Info : Audio Video Interleave
File size : 1.36 GiB
Duration : 1h 37mn
Overall bit rate : 1 995 Kbps
Writing application : FairUse Wizard - http://fairusewizard.com
Writing library : The best and REALLY easy backup tool
Video
ID : 0
Format : MPEG-4 Visual
Format profile : Advanced Simple@L5
Format settings, BVOP : 1
Format settings, QPel : No
Format settings, GMC : No warppoints
Format settings, Matrix : Default (MPEG)
Muxing mode : Packed bitstream
Codec ID : XVID
Codec ID/Hint : XviD
Duration : 1h 37mn
Bit rate : 1 793 Kbps
Width : 704 pixels
Height : 368 pixels
Display aspect ratio : 1.913
Frame rate : 23.976 fps
Color space : YUV
Chroma subsampling : 4:2:0
Bit depth : 8 bits
Scan type : Progressive
Compression mode : Lossy
Bits/(Pixel*Frame) : 0.289
Stream size : 1.23 GiB (90%)
Writing library : XviD 1.2.0.dev47 (UTC 2006-11-01)
Audio
ID : 1
Format : AC-3
Format/Info : Audio Coding 3
Mode extension : CM (complete main)
Codec ID : 2000
Duration : 1h 37mn
Bit rate mode : Constant
Bit rate : 192 Kbps
Channel(s) : 2 channels
Channel positions : Front: L R
Sampling rate : 48.0 KHz
Bit depth : 16 bits
Compression mode : Lossy
Stream size : 134 MiB (10%)
Alignment : Split accross interleaves
Interleave, duration : 42 ms (1.00 video frame)
Interleave, preload duration : 500 ms
[th]http://pics.kz/i1/3d/3c/3d3c846899fefe1dd182ba5944d0674b.png[/th] [th]http://pics.kz/i3/66/40/66404e79226c07585f0121c70c4a8988.png[/th] [th]http://pics.kz/i2/26/1b/261b93e52e9c742c029dfd09dc90d454.png[/th] [Стол заказов][Прием РГ][О нас "RG Dark Lords]

[Цитировать]



Показать сообщения:    

Текущее время: 11-Дек 07:18

Часовой пояс: UTC + 3


Вы не можете начинать темы
Вы не можете отвечать на сообщения
Вы не можете редактировать свои сообщения
Вы не можете удалять свои сообщения
Вы не можете голосовать в опросах
Вы не можете прикреплять файлы к сообщениям
Вы не можете скачивать файлы

!ВНИМАНИЕ!
Сайт не предоставляет электронные версии произведений, а занимается лишь коллекционированием и каталогизацией ссылок, присылаемых и публикуемых на форуме нашими читателями. Если вы являетесь правообладателем какого-либо представленного материала и не желаете, чтобы ссылка на него находилась в нашем каталоге, свяжитесь с нами, и мы незамедлительно удалим ее. Файлы для обмена на трекере предоставлены пользователями сайта, и администрация не несет ответственности за их содержание. Просьба не заливать файлы, защищенные авторскими правами, а также файлы нелегального содержания!