[ Сегодня идет свободное скачивание без начисления Download ]


Статистика раздачи
Нет
 
   
 
Top  
 
 
- --Клевермэн / Cleverman Год выпуска: 2016
Страна: США, Австралия, Новая Зеландия
Жанр: Фантастика
Продолжительность: ~ 00:50:00
Премьера (мир): 2 июня 2016
Перевод: Профессиональный (многоголосый закадровый) / NewStudio
Режиссёр: Уэйн Блэр, Леа Пурселл
В ролях: Иэн Глен, Фрэнсис О’Коннор, Дебора Мэйлман, Хантер Пейдж-Лошар, Стэф Доусон, Райан Корр, Тасма Уолтон, Тони Бриггс, Робин Невин, Линетт Каррен и другие
Описание:
Действие сериала разворачивается в недалеком будущем. Существа из австралийских мифов и легенд проникли в нашу реальность и захватили мир людей, и теперь человечество вынуждено ютиться в небольшой общине, опасаясь за свою жизнь. В центре событий — история двух братьев, которые, несмотря на давнюю вражду, объединяют усилия в борьбе за выживание.
- --Качество: WEBDLRip
Формат: AVI
Видео: MPEG4, XviD, 720x400 (16:9), 23.976 fps, 1 634 Kbps (0.237 bit/pixel)
Аудио: MP3, 48.0 KHz, 2 ch, 128 Kbps, CBR
Субтитры: отсутствуют
-

Список серий

01. Первый контакт / First Contact
02. Карантин / Containment
03. Свободный рейнджер / A Free Ranger
04. Солнце и луна / Sun and Moon
05. ........................ / A Man of Vision
06. ........................ / Terra Nullius

Дата выхода серий

1x01 - First Contact - 1 июня 2016
1x02 - Containment - 8 июня 2016
1x03 - A Free Ranger - 15 июня 2016
1x04 - Sun and Moon - 22 июня 2016
1x05 - Серия 5 - 30 июня 2016
1x06 - Серия 6 - 7 июля 2016

MediaInfo

F:\P.N.L\Cleverman (Season 01) NewStudio\Cleverman.s01e01.WEBDLRip.NewStudio.avi
   General
      Complete name : F:\P.N.L\Cleverman (Season 01) NewStudio\Cleverman.s01e01.WEBDLRip.NewStudio.avi
      Format : AVI
      Format/Info : Audio Video Interleave
      File size : 640 MiB
      Duration : 50mn 31s
      Overall bit rate : 1 771 Kbps
      Writing application : VirtualDubMod 1.5.10.2 (build 2540/release)
      Writing library : VirtualDub build 35491/release
   Video #0
      ID : 0
      Format : MPEG-4 Visual
      Format profile : Advanced Simple@L5
      Format settings, BVOP : 2
      Format settings, QPel : No
      Format settings, GMC : No warppoints
      Format settings, Matrix : Default (MPEG)
      Codec ID : XVID
      Codec ID/Hint : XviD
      Duration : 50mn 31s
      Bit rate : 1 634 Kbps
      Width : 720 pixels
      Height : 400 pixels
      Display aspect ratio : 16:9
      Frame rate : 23.976 fps
      Color space : YUV
      Chroma subsampling : 4:2:0
      Bit depth : 8 bits
      Scan type : Progressive
      Compression mode : Lossy
      Bits/(Pixel*Frame) : 0.237
      Stream size : 590 MiB (92%)
      Writing library : XviD 73
   Audio #1
      ID : 1
      Format : MPEG Audio
      Format version : Version 1
      Format profile : Layer 3
      Mode : Joint stereo
      Mode extension : MS Stereo
      Codec ID : 55
      Codec ID/Hint : MP3
      Duration : 50mn 31s
      Bit rate mode : Constant
      Bit rate : 128 Kbps
      Channel(s) : 2 channels
      Sampling rate : 48.0 KHz
      Compression mode : Lossy
      Stream size : 46.3 MiB (7%)
      Alignment : Aligned on interleaves
      Interleave, duration : 42 ms (1.00 video frame)
      Interleave, preload duration : 504 ms

Скриншоты


-

[Цитировать]

Качество: WEBDLRip
Формат: AVI
Видео: MPEG4, XviD, 720x400 (16:9), 23.976 fps, 1 634 Kbps (0.237 bit/pixel)
На самом деле:
Shmeless.s04e04.DVDRemix.FocusStudio.mkv
Как думаете, это одно и тоже? Первый раз на сайте и уже разочарование. Злые вы, уйду я от вас.

[Цитировать]

57385Cleverman
Умник / Cleverman [S01] (2016) WEB-DLRip
Первый раз на сайте и уже разочарование. Злые вы, уйду я от вас.
И не злые мы, Ну напутал немного релизер, у кого не бывает, Вы заметили , спасибо что показали!

[Цитировать]



Показать сообщения:    

Текущее время: 09-Дек 03:04

Часовой пояс: UTC + 3


Вы не можете начинать темы
Вы не можете отвечать на сообщения
Вы не можете редактировать свои сообщения
Вы не можете удалять свои сообщения
Вы не можете голосовать в опросах
Вы не можете прикреплять файлы к сообщениям
Вы не можете скачивать файлы

!ВНИМАНИЕ!
Сайт не предоставляет электронные версии произведений, а занимается лишь коллекционированием и каталогизацией ссылок, присылаемых и публикуемых на форуме нашими читателями. Если вы являетесь правообладателем какого-либо представленного материала и не желаете, чтобы ссылка на него находилась в нашем каталоге, свяжитесь с нами, и мы незамедлительно удалим ее. Файлы для обмена на трекере предоставлены пользователями сайта, и администрация не несет ответственности за их содержание. Просьба не заливать файлы, защищенные авторскими правами, а также файлы нелегального содержания!