[ Сегодня идет свободное скачивание без начисления Download ]


Статистика раздачи
Нет
 
   
 
Top  
 
 
Факультет / The Faculty (1998) BDRip 720p Информация о фильме
Название: Факультет
Оригинальное название: The Faculty
Год выхода: 1998
Жанр: ужасы, фантастика, триллер, комедия, детектив
Режиссер: Роберт Родригес
В ролях: Джош Хартнетт, Элайджа Вуд, Джордана Брюстер, Клеа ДюВалл, Лора Харрис, Шон Хэтоси, Сальма Хайек, Фамке Янссен, Пайпер Лори, Кристофер МакДональд
О фильме:
Колледж Хэррингтон давно утратил свою первозданность. Его обшарпанные коридоры ежедневно заполняет будущее Америки — одиночки и лидеры, пижоны и наркоманы, умники и кретины. Подобно подросткам везде и всюду, они ведут постоянную борьбу друг с другом.
Но однажды студенты делают ужасающее открытие: их преподаватели — пришельцы с другой планеты! Столкнувшись с вызовом, который они даже не могли себе вообразить, бывшие враги вынуждены объединиться, чтобы спастись от инопланетного вторжения…

Страна: США
Студия: Dimension Films, Los Hooligans Productions
Продолжительность: 01:44:31
Перевод: Профессиональный (двухголосый, закадровый) R5 + Профессиональный (многоголосый, закадровый) СТС + Профессиональный (двухголосый, закадровый) REN-TV + Авторский (одноголосый, закадровый) Диктор CDV + Авторский (одноголосый, закадровый) А.Гаврилов + Авторский (одноголосый, закадровый) М.Яроцкий + Авторский (одноголосый, закадровый) Ю.Живов + Авторский (одноголосый, закадровый) Лёша-прапорщик
Файл
Формат: Matroska
Исходник: The Faculty 1998 1080p JPN Blu-ray AVC DTS-HD MA 5.1
Видео: 1280x692 at 23.976 fps, [email protected], ~6723 kbps avg
Аудио#1: Russian: 48 kHz, AC3, 3/2 (L,C,R,l,r) + LFE ch, ~640 kbps avg |Двухголосый закадровый, R5|
Аудио#2: Russian: 48 kHz, AC3, 2/0 (L,R) ch, ~192 kbps avg |Многоголосый закадровый, СТС|
Аудио#3: Russian: 48 kHz, AC3, 2/0 (L,R) ch, ~192 kbps avg |Двухголосый закадровый, REN-TV|
Аудио#4: Russian: 48 kHz, AC3, 2/0 (L,R) ch, ~192 kbps avg |Авторский, Диктор CDV|
Аудио#5: Russian: 48 kHz, AC3, 3/2 (L,C,R,l,r) + LFE ch, ~640 kbps avg |Авторский, А.Гаврилов|
Аудио#6: Russian: 48 kHz, AC3, 3/2 (L,C,R,l,r) + LFE ch, ~640 kbps avg |Авторский, М.Яроцкий|
Аудио#7: Russian: 48 kHz, AC3, 3/2 (L,C,R,l,r) + LFE ch, ~640 kbps avg |Авторский, Ю.Живов|
Аудио#8: Russian: 48 kHz, AC3, 2/0 (L,R) ch, ~192 kbps avg |Авторский, Лёша-прапорщик|
Аудио#9: English: 48 kHz, AC3, 3/2 (L,C,R,l,r) + LFE ch, ~640 kbps avg
Субтитры: Russian (x2), English (Full, SDH, w. songs)
***За исходные дорожки спасибо: kukushka, Sunny, SnDamil, miscalin11, waren, edich2, d_rocker.
***Перевод М.Яроцкого доступен благодаря ресурсу "Переулок Переводмана". Заказ перевода - Nana_Ko, kidman644, Hannabar, dikii, MrRose. Работа со звуком - Переводман.
Внимание! В переводе присутствует ненормативная лексика!
***Видеоряд - SbR, сборка рипа - igrok2012.

Знаете ли Вы, что...

Машина Зика - 1970 Pontiac GTO.
В сцене, где слышно объявление о том, что школьники должны пройти в учительскую, одного из них зовут Томми Никс. В реальной жизни Томми Никс - друг Роберта Родригеса со времен колледжа. Он помогал Роберту в написании сценария к фильму «Гонщики» (1994).
Джон Стюарт исполнил роль профессора Эдварда Ферлонга. Актёра Эдварда Ферлонга, сыгравшего Джона Коннора в фильме «Терминатор 2: Судный день» (1991), преследовал Т-1000, в роли которого снялся Роберт Патрик, сыгравший в «Факультете» тренера Джо Уиллиса.
В туалете можно заметить надпись «Tito & Tarantula». Данная группа написала часть музыки и сыграла в двух других картинах Роберта Родригеса - «Отчаянный» (1995) и «От заката до рассвета» (1995).
Мэрибет отказывается принимать наркотики, заявив, что она аллергик. На что Делайла (Джордана Брюстер) отвечает: «А я португалка». В реальной жизни Брюстер свободно говорит на португальском.
Роль Делайлы была специально написана для Харизмы Карпентер, но актриса отвергла предложение, посчитав, что данный персонаж очень похож на её героиню в «Баффи - истребительнице вампиров» (1997-2003).
Герои фильма одеты в одежду «Tommy Hilfiger». Актёры, сыгравшие главные роли, также появились в телевизионных роликах и печатной рекламе данного бренда.
В сцене в начале фильма, где показывается школа общим планом, звучит cover-версия «Another Brick in the Wall» в исполнении группы Class of ’99.

MI

Общее
Уникальный идентификатор : 247399806430101981198869366287182078411 (0xBA1F783408003B5395FB7ED37EA821CB)
Полное имя : The Faculty 1998 720p BluRay 8xRus Eng DD5.1 x264.mkv
Формат : Matroska
Версия формата : Version 2
Размер файла : 7,96 Гбайт
Продолжительность : 1 ч. 44 м.
Общий поток : 10,9 Мбит/сек
Название фильма : The.Faculty.1998 | igrok2012
Дата кодирования : UTC 2016-07-15 19:59:32
Программа кодирования : mkvmerge v8.3.0 ('Over the Horizon') 64bit
Библиотека кодирования : libebml v1.3.1 + libmatroska v1.4.2
Attachements : cover.jpg
Видео
Идентификатор : 1
Формат : AVC
Формат/Информация : Advanced Video Codec
Профиль формата : [email protected]
Параметр CABAC формата : Да
Параметр ReFrames формата : 9 кадров
Идентификатор кодека : V_MPEG4/ISO/AVC
Продолжительность : 1 ч. 44 м.
Битрейт : 6723 Кбит/сек
Ширина : 1280 пикселей
Высота : 692 пикселя
Соотношение сторон : 1,85:1
Режим частоты кадров : Постоянный
Частота кадров : 23,976 кадра/сек
Цветовое пространство : YUV
Субдискретизация насыщенности : 4:2:0
Битовая глубина : 8 бит
Тип развёртки : Прогрессивная
Бит/(Пиксели*Кадры) : 0.317
Размер потока : 4,91 Гбайт (62%)
Заголовок : Encode by SbR ( nevermnd )
Библиотека кодирования : x264 core 148 r2665kMod a01e339
Настройки программы : cabac=1 / ref=9 / deblock=1:-3:-3 / analyse=0x3:0x133 / me=tesa / subme=11 / psy=1 / fade_compensate=0.00 / psy_rd=1.10:0.10 / mixed_ref=1 / me_range=24 / chroma_me=1 / trellis=2 / 8x8dct=1 / cqm=0 / deadzone=21,11 / fast_pskip=0 / chroma_qp_offset=-3 / threads=12 / lookahead_threads=3 / sliced_threads=0 / nr=0 / decimate=1 / interlaced=0 / bluray_compat=0 / constrained_intra=0 / fgo=0 / bframes=12 / b_pyramid=2 / b_adapt=2 / b_bias=0 / direct=3 / weightb=1 / open_gop=0 / weightp=2 / keyint=250 / keyint_min=23 / scenecut=40 / intra_refresh=0 / rc=crf / mbtree=0 / crf=17.5000 / qcomp=0.70 / qpmin=0 / qpmax=69 / qpstep=4 / ip_ratio=1.30 / pb_ratio=1.30 / aq=3:0.70
Язык : English
Default : Да
Forced : Нет
Цветовой диапазон : Limited
Основные цвета : BT.709
Характеристики трансфера : BT.709
Коэффициенты матрицы : BT.709
Аудио #1
Идентификатор : 2
Формат : AC-3
Формат/Информация : Audio Coding 3
Расширение режима : CM (complete main)
Параметр Endianness формата : Big
Идентификатор кодека : A_AC3
Продолжительность : 1 ч. 44 м.
Вид битрейта : Постоянный
Битрейт : 640 Кбит/сек
Каналы : 6 каналов
Расположение каналов : Front: L C R, Side: L R, LFE
Частота : 48,0 КГц
Метод сжатия : С потерями
Размер потока : 478 Мбайт (6%)
Заголовок : Двухголосый закадровый, R5
Язык : Russian
Default : Да
Forced : Нет
Аудио #2
Идентификатор : 3
Формат : AC-3
Формат/Информация : Audio Coding 3
Расширение режима : CM (complete main)
Параметр Endianness формата : Big
Идентификатор кодека : A_AC3
Продолжительность : 1 ч. 44 м.
Вид битрейта : Постоянный
Битрейт : 192 Кбит/сек
Каналы : 2 канала
Расположение каналов : Front: L R
Частота : 48,0 КГц
Метод сжатия : С потерями
Размер потока : 144 Мбайт (2%)
Заголовок : Многоголосый закадровый, СТС
Язык : Russian
Default : Нет
Forced : Нет
Аудио #3
Идентификатор : 4
Формат : AC-3
Формат/Информация : Audio Coding 3
Расширение режима : CM (complete main)
Параметр Endianness формата : Big
Идентификатор кодека : A_AC3
Продолжительность : 1 ч. 44 м.
Вид битрейта : Постоянный
Битрейт : 192 Кбит/сек
Каналы : 2 канала
Расположение каналов : Front: L R
Частота : 48,0 КГц
Метод сжатия : С потерями
Размер потока : 144 Мбайт (2%)
Заголовок : Двухголосый закадровый, REN-TV
Язык : Russian
Default : Нет
Forced : Нет
Аудио #4
Идентификатор : 5
Формат : AC-3
Формат/Информация : Audio Coding 3
Расширение режима : CM (complete main)
Параметр Endianness формата : Big
Идентификатор кодека : A_AC3
Продолжительность : 1 ч. 44 м.
Вид битрейта : Постоянный
Битрейт : 192 Кбит/сек
Каналы : 2 канала
Расположение каналов : Front: L R
Частота : 48,0 КГц
Метод сжатия : С потерями
Размер потока : 144 Мбайт (2%)
Заголовок : Одноголосый закадровый, Диктор CDV
Язык : Russian
Default : Нет
Forced : Нет
Аудио #5
Идентификатор : 6
Формат : AC-3
Формат/Информация : Audio Coding 3
Расширение режима : CM (complete main)
Параметр Endianness формата : Big
Идентификатор кодека : A_AC3
Продолжительность : 1 ч. 44 м.
Вид битрейта : Постоянный
Битрейт : 640 Кбит/сек
Каналы : 6 каналов
Расположение каналов : Front: L C R, Side: L R, LFE
Частота : 48,0 КГц
Метод сжатия : С потерями
Размер потока : 478 Мбайт (6%)
Заголовок : Одноголосый закадровый, А. Гаврилов
Язык : Russian
Default : Нет
Forced : Нет
Аудио #6
Идентификатор : 7
Формат : AC-3
Формат/Информация : Audio Coding 3
Расширение режима : CM (complete main)
Параметр Endianness формата : Big
Идентификатор кодека : A_AC3
Продолжительность : 1 ч. 44 м.
Вид битрейта : Постоянный
Битрейт : 640 Кбит/сек
Каналы : 6 каналов
Расположение каналов : Front: L C R, Side: L R, LFE
Частота : 48,0 КГц
Метод сжатия : С потерями
Размер потока : 478 Мбайт (6%)
Заголовок : Одноголосый закадровый, М. Яроцкий
Язык : Russian
Default : Нет
Forced : Нет
Аудио #7
Идентификатор : 8
Формат : AC-3
Формат/Информация : Audio Coding 3
Расширение режима : CM (complete main)
Параметр Endianness формата : Big
Идентификатор кодека : A_AC3
Продолжительность : 1 ч. 44 м.
Вид битрейта : Постоянный
Битрейт : 640 Кбит/сек
Каналы : 6 каналов
Расположение каналов : Front: L C R, Side: L R, LFE
Частота : 48,0 КГц
Метод сжатия : С потерями
Размер потока : 478 Мбайт (6%)
Заголовок : Одноголосый закадровый, Ю. Живов
Язык : Russian
Default : Нет
Forced : Нет
Аудио #8
Идентификатор : 9
Формат : AC-3
Формат/Информация : Audio Coding 3
Расширение режима : CM (complete main)
Параметр Endianness формата : Big
Идентификатор кодека : A_AC3
Продолжительность : 1 ч. 44 м.
Вид битрейта : Постоянный
Битрейт : 192 Кбит/сек
Каналы : 2 канала
Расположение каналов : Front: L R
Частота : 48,0 КГц
Метод сжатия : С потерями
Размер потока : 144 Мбайт (2%)
Заголовок : Одноголосый закадровый, Лёша-прапорщик
Язык : Russian
Default : Нет
Forced : Нет
Аудио #9
Идентификатор : 10
Формат : AC-3
Формат/Информация : Audio Coding 3
Расширение режима : CM (complete main)
Параметр Endianness формата : Big
Идентификатор кодека : A_AC3
Продолжительность : 1 ч. 44 м.
Вид битрейта : Постоянный
Битрейт : 640 Кбит/сек
Каналы : 6 каналов
Расположение каналов : Front: L C R, Side: L R, LFE
Частота : 48,0 КГц
Метод сжатия : С потерями
Размер потока : 478 Мбайт (6%)
Язык : English
Default : Нет
Forced : Нет
Текст #1
Идентификатор : 11
Формат : UTF-8
Идентификатор кодека : S_TEXT/UTF8
Идентификатор кодека/Информация : UTF-8 Plain Text
Заголовок : R5 (patched)
Язык : Russian
Default : Нет
Forced : Нет
Текст #2
Идентификатор : 12
Формат : UTF-8
Идентификатор кодека : S_TEXT/UTF8
Идентификатор кодека/Информация : UTF-8 Plain Text
Заголовок : uncle killer (uncensored)
Язык : Russian
Default : Нет
Forced : Нет
Текст #3
Идентификатор : 13
Формат : UTF-8
Идентификатор кодека : S_TEXT/UTF8
Идентификатор кодека/Информация : UTF-8 Plain Text
Язык : English
Default : Нет
Forced : Нет
Текст #4
Идентификатор : 14
Формат : UTF-8
Идентификатор кодека : S_TEXT/UTF8
Идентификатор кодека/Информация : UTF-8 Plain Text
Заголовок : SDH
Язык : English
Default : Нет
Forced : Нет
Текст #5
Идентификатор : 15
Формат : UTF-8
Идентификатор кодека : S_TEXT/UTF8
Идентификатор кодека/Информация : UTF-8 Plain Text
Заголовок : w. songs
Язык : English
Default : Нет
Forced : Нет
Меню
00:00:00.000 : en:Program Start / Football Practice
00:01:53.113 : en:Staff Meeting
00:04:07.039 : en:Coach Willis
00:07:55.058 : en:Introductions
00:11:50.001 : en:Faculty Lounge
00:13:42.947 : en:Herrington High
00:16:51.803 : en:Eating Lunch Alone
00:19:41.556 : en:Sea-Dwelling Organism
00:23:54.016 : en:Mrs. Brummel
00:27:54.965 : en:"We Can't Go In Here."
00:32:13.849 : en:"I Have A Pain."
00:34:36.575 : en:Resuscitation Annie
00:37:55.315 : en:"What Are You On, Son?"
00:40:25.173 : en:Back To School
00:42:42.435 : en:A "D" Student
00:45:17.799 : en:"What's Going On Here?"
00:49:53.866 : en:Science Fiction Or Fact
00:53:18.821 : en:Mr. Furlong
00:58:00.811 : en:The Getaway
01:00:40.888 : en:Oscar's Infection
01:06:13.887 : en:Tweakin'
01:10:19.007 : en:The Big Game
01:14:25.920 : en:Mistake?
01:17:27.810 : en:Stan
01:21:05.027 : en:Decoy
01:23:45.145 : en:Cherry-Flavored
01:26:04.159 : en:The Outsider
01:29:02.546 : en:"Two Of Everything"
01:32:19.201 : en:Guaranteed To Jack You Up
01:37:15.413 : en:Back To Normal
01:39:18.787 : en:End Credits

Скриншоты


[Цитировать]



Показать сообщения:    

Текущее время: 04-Дек 09:12

Часовой пояс: UTC + 3


Вы не можете начинать темы
Вы не можете отвечать на сообщения
Вы не можете редактировать свои сообщения
Вы не можете удалять свои сообщения
Вы не можете голосовать в опросах
Вы не можете прикреплять файлы к сообщениям
Вы не можете скачивать файлы

!ВНИМАНИЕ!
Сайт не предоставляет электронные версии произведений, а занимается лишь коллекционированием и каталогизацией ссылок, присылаемых и публикуемых на форуме нашими читателями. Если вы являетесь правообладателем какого-либо представленного материала и не желаете, чтобы ссылка на него находилась в нашем каталоге, свяжитесь с нами, и мы незамедлительно удалим ее. Файлы для обмена на трекере предоставлены пользователями сайта, и администрация не несет ответственности за их содержание. Просьба не заливать файлы, защищенные авторскими правами, а также файлы нелегального содержания!