[ Сегодня идет свободное скачивание без начисления Download ]


Статистика раздачи
Нет
 
   
 
Top  
 
 
Astell&Kern - MQS Blue Note 75th Anniversary Collection Жанр: Blues, Jazz, Bop, Ragtime, Big Band, Dixieland
Год издания: 2014
Издатель (лейбл): Blue Note
Аудио кодек: ALAC (*.m4a)
Тип рипа: tracks
Программа-конвертер: Foobar
Битрейт аудио: lossless
Продолжительность: 02:03:52:09
Наличие сканов в содержимом раздачи: да
Тексты: вшиты частично
Источник

CD01 - Thelonious Monk - Genius Of Modern Music Vol. 1 (1956)

1. Thelonious Monk - 'Round Midnight [03:10]
2. Thelonious Monk - Off Minor [03:00]
3. Thelonious Monk - Ruby My Dear [03:07]
4. Thelonious Monk - I Mean You [02:46]
5. Thelonious Monk - April In Paris [03:21]
6. Thelonious Monk - In Walked Bud [02:55]
7. Thelonious Monk - Thelonious [03:01]
8. Thelonious Monk - Epistrophy [03:06]
9. Thelonious Monk - Misterioso [03:22]
10. Thelonious Monk - Well You Needn't [02:58]
11. Thelonious Monk - Introspection [03:11]
12. Thelonious Monk - Humph [02:52]
Продолжительность: 00:36:45
Dynamic Range Meter
foobar2000 1.3.10 / Замер динамического диапазона (DR) 1.1.1Дата отчёта: 2016-06-19 14:00:42
--------------------------------------------------------------------------------Анализ: Thelonious Monk / Genius Of Modern Music Volume One--------------------------------------------------------------------------------
DR Пики RMS Продолжительность трека--------------------------------------------------------------------------------DR10 -3.83 дБ -16.84 дБ 3:10 01-'Round MidnightDR10 -2.68 дБ -15.49 дБ 3:00 02-Off MinorDR11 -2.02 дБ -15.07 дБ 3:07 03-Ruby My DearDR10 -4.25 дБ -15.24 дБ 2:45 04-I Mean YouDR11 -3.34 дБ -16.92 дБ 3:21 05-April In ParisDR11 -0.90 дБ -13.49 дБ 2:55 06-In Walked BudDR11 -3.48 дБ -16.36 дБ 3:00 07-TheloniousDR9 -5.12 дБ -15.59 дБ 3:06 08-EpistrophyDR9 -4.71 дБ -16.33 дБ 3:21 09-MisteriosoDR13 -3.00 дБ -17.80 дБ 2:58 10-Well You Needn'tDR11 -2.50 дБ -15.88 дБ 3:11 11-IntrospectionDR11 -0.61 дБ -13.15 дБ 2:52 12-Humph--------------------------------------------------------------------------------
Количество треков: 12Реальные значения DR: DR11
Частота: 48000 ГцКаналов: 2Разрядность: 24Битрейт: 1255 кбит/сКодек: ALAC================================================================================

Скриншот спектра частот

CD02 - Bud Powell - The Amazing Bud Powell (1951)

01. Bud Powell - Un Poco Loco [04:45]
02. Bud Powell - Over The Rainbow [02:58]
03. Bud Powell - Ornithology [02:23]
04. Bud Powell - Wail [03:05]
05. Bud Powell - A Night In Tunisia [04:15]
06. Bud Powell - It Could Happen To You [02:24]
07. Bud Powell - You Go To My Head [03:17]
08. Bud Powell - Bouncin' With Bud [03:03]
Продолжительность: 00:26:06
Dynamic Range Meter
foobar2000 1.3.10 / Замер динамического диапазона (DR) 1.1.1Дата отчёта: 2016-06-19 14:01:10
--------------------------------------------------------------------------------Анализ: Bud Powell / The Amazing Bud Powell--------------------------------------------------------------------------------
DR Пики RMS Продолжительность трека--------------------------------------------------------------------------------DR12 0.00 дБ -13.89 дБ 4:44 01-Un Poco LocoDR11 -0.49 дБ -14.95 дБ 2:57 02-Over The RainbowDR11 -1.17 дБ -15.47 дБ 2:23 03-OrnithologyDR11 0.00 дБ -13.38 дБ 3:04 04-WailDR12 -1.18 дБ -15.34 дБ 4:15 05-A Night In TunisiaDR10 -5.14 дБ -19.08 дБ 2:24 06-It Could Happen To YouDR11 -2.05 дБ -16.15 дБ 3:16 07-You Go To My HeadDR12 -0.43 дБ -14.41 дБ 3:03 08-Bouncin' With Bud--------------------------------------------------------------------------------
Количество треков: 8Реальные значения DR: DR11
Частота: 48000 ГцКаналов: 2Разрядность: 24Битрейт: 1378 кбит/сКодек: ALAC================================================================================

Скриншот спектра частот

CD03 - Thelonious Monk - Genius Of Modern Music Vol. 2 (1956)

1. Thelonious Monk - Carolina Moon [03:28]
2. Thelonious Monk - Hornin' In [03:15]
3. Thelonious Monk - Skippy [03:01]
4. Thelonious Monk - Let's Cool One [03:48]
5. Thelonious Monk - Suburban Eyes [03:02]
6. Thelonious Monk - Evonce [03:04]
7. Thelonious Monk - Straight No Chaser [02:58]
8. Thelonious Monk - Four In One [03:32]
9. Thelonious Monk - Nice Work (If You Can Get It) [03:02]
10. Thelonious Monk - Monk's Mood [03:07]
11. Thelonious Monk - Who Knows? [02:40]
12. Thelonious Monk - Ask Me Now [03:14]
Продолжительность: 00:38:05
Dynamic Range Meter
foobar2000 1.3.10 / Замер динамического диапазона (DR) 1.1.1Дата отчёта: 2016-06-19 14:01:39
--------------------------------------------------------------------------------Анализ: Thelonious Monk / Genius Of Modern Music Volume Two--------------------------------------------------------------------------------
DR Пики RMS Продолжительность трека--------------------------------------------------------------------------------DR11 -0.57 дБ -14.38 дБ 3:27 01-Carolina MoonDR12 -1.80 дБ -15.16 дБ 3:15 02-Hornin' InDR12 -1.59 дБ -14.72 дБ 3:00 03-SkippyDR12 -0.34 дБ -15.34 дБ 3:48 04-Let's Cool OneDR12 -1.69 дБ -15.02 дБ 3:01 05-Suburban EyesDR12 -0.17 дБ -13.83 дБ 3:04 06-EvonceDR11 -1.18 дБ -15.68 дБ 2:57 07-Straight No ChaserDR11 -1.26 дБ -15.14 дБ 3:32 08-Four In OneDR11 -2.34 дБ -15.21 дБ 3:01 09-Nice Work (If You Can Get It)DR9 -2.84 дБ -14.61 дБ 3:06 10-Monk's MoodDR11 -0.52 дБ -13.08 дБ 2:40 11-Who Knows?DR13 -2.63 дБ -17.70 дБ 3:13 12-Ask Me Now--------------------------------------------------------------------------------
Количество треков: 12Реальные значения DR: DR11
Частота: 48000 ГцКаналов: 2Разрядность: 24Битрейт: 1162 кбит/сКодек: ALAC================================================================================

Скриншот спектра частот

CD04 - Miles Davis - Miles Davis, Volume 1 (1956)

1. Miles Davis - Tempus Fugit [03:49]
2. Miles Davis - Kelo [03:17]
3. Miles Davis - Enigma [03:22]
4. Miles Davis - Ray's Idea [03:43]
5. Miles Davis - How Deep Is The Ocean [04:41]
6. Miles Davis - C.T.A. (Alternate Master) [03:17]
7. Miles Davis - Dear Old Stockholm [04:11]
8. Miles Davis - Chance It [03:02]
9. Miles Davis - Yesterdays [03:44]
10. Miles Davis - Donna (Alternate Master) [03:09]
11. Miles Davis - C.T.A. [03:32]
12. Miles Davis - Woody'n You (Alternate Master) [03:22]
Продолжительность: 00:43:05
Dynamic Range Meter
foobar2000 1.3.10 / Замер динамического диапазона (DR) 1.1.1Дата отчёта: 2016-06-19 14:02:32
--------------------------------------------------------------------------------Анализ: Miles Davis / Miles Davis, Volume 1--------------------------------------------------------------------------------
DR Пики RMS Продолжительность трека--------------------------------------------------------------------------------DR14 -0.50 дБ -16.17 дБ 3:49 01-Tempus FugitDR13 -1.03 дБ -16.19 дБ 3:17 02-KeloDR12 -2.27 дБ -17.53 дБ 3:21 03-EnigmaDR14 -0.13 дБ -15.74 дБ 3:42 04-Ray's IdeaDR12 -1.31 дБ -17.86 дБ 4:40 05-How Deep Is The OceanDR13 -1.35 дБ -16.68 дБ 3:17 06-C.T.A. (Alternate Master)DR12 -1.49 дБ -15.92 дБ 4:11 07-Dear Old StockholmDR14 -0.32 дБ -15.25 дБ 3:02 08-Chance ItDR12 -1.37 дБ -16.33 дБ 3:43 09-YesterdaysDR13 -0.84 дБ -15.53 дБ 3:09 10-Donna (Alternate Master)DR14 -0.62 дБ -16.04 дБ 3:32 11-C.T.A.DR12 -0.72 дБ -15.84 дБ 3:22 12-Woody'n You (Alternate Master)--------------------------------------------------------------------------------
Количество треков: 12Реальные значения DR: DR13
Частота: 48000 ГцКаналов: 2Разрядность: 24Битрейт: 1400 кбит/сКодек: ALAC================================================================================

Скриншот спектра частот

CD05 - Miles Davis - Miles Davis, Volume 2 (1956)

1. Miles Davis - Take-Off [03:39]
2. Miles Davis - Weirdo [04:44]
3. Miles Davis - Woody 'N You [03:25]
4. Miles Davis - I Waited For You [03:31]
5. Miles Davis - Ray's Idea (Alternate Master) [03:49]
6. Miles Davis - Donna [03:14]
7. Miles Davis - Well You Needn't [05:24]
8. Miles Davis - The Leap [04:31]
9. Miles Davis - Lazy Susan [04:02]
10. Miles Davis - Tempus Fugit (Alternate Master) [03:57]
11. Miles Davis - It Never Entered My Mind [04:04]
Продолжительность: 00:44:15
Dynamic Range Meter
foobar2000 1.3.10 / Замер динамического диапазона (DR) 1.1.1Дата отчёта: 2016-06-19 14:03:21
--------------------------------------------------------------------------------Анализ: Miles Davis / Miles Davis, Volume 2--------------------------------------------------------------------------------
DR Пики RMS Продолжительность трека--------------------------------------------------------------------------------DR14 -0.22 дБ -17.08 дБ 3:39 01-Take-OffDR14 -0.35 дБ -16.96 дБ 4:44 02-WeirdoDR13 -0.35 дБ -16.33 дБ 3:25 03-Woody 'N YouDR12 -2.46 дБ -17.98 дБ 3:30 04-I Waited For YouDR14 -0.35 дБ -16.02 дБ 3:49 05-Ray's Idea (Alternate Master)DR14 0.00 дБ -15.56 дБ 3:13 06-DonnaDR15 -1.10 дБ -17.81 дБ 5:23 07-Well You Needn'tDR14 -1.01 дБ -17.03 дБ 4:30 08-The LeapDR14 -1.31 дБ -18.10 дБ 4:02 09-Lazy SusanDR15 0.00 дБ -16.32 дБ 3:57 10-Tempus Fugit (Alternate Master)DR9 -6.30 дБ -18.28 дБ 4:03 11-It Never Entered My Mind--------------------------------------------------------------------------------
Количество треков: 11Реальные значения DR: DR13
Частота: 48000 ГцКаналов: 2Разрядность: 24Битрейт: 1326 кбит/сКодек: ALAC================================================================================

Скриншот спектра частот

CD06 - Horace Silver And The Jazz Messengers - HS And TJM (1955)

01. Horace Silver & The Jazz Messengers - Room 608 [05:21]
02. Horace Silver & The Jazz Messengers - Creepin' In [07:25]
03. Horace Silver & The Jazz Messengers - Stop Time [04:06]
04. Horace Silver & The Jazz Messengers - To Whom It May Concern [05:10]
05. Horace Silver & The Jazz Messengers - Hippy [05:24]
06. Horace Silver & The Jazz Messengers - The Preacher [04:17]
07. Horace Silver & The Jazz Messengers - Hankerin' [05:18]
08. Horace Silver & The Jazz Messengers - Doodlin' [06:45]
Продолжительность: 00:44:34
Dynamic Range Meter
foobar2000 1.3.10 / Замер динамического диапазона (DR) 1.1.1Дата отчёта: 2016-06-19 14:03:59
--------------------------------------------------------------------------------Анализ: Horace Silver & The Jazz Messengers / Horace Silver And The Jazz Messengers--------------------------------------------------------------------------------
DR Пики RMS Продолжительность трека--------------------------------------------------------------------------------DR12 -0.19 дБ -15.51 дБ 5:21 01-Room 608DR14 -2.03 дБ -18.21 дБ 7:25 02-Creepin' InDR12 -0.58 дБ -15.31 дБ 4:06 03-Stop TimeDR15 -0.83 дБ -17.85 дБ 5:09 04-To Whom It May ConcernDR14 -2.50 дБ -18.12 дБ 5:24 05-HippyDR13 -0.11 дБ -17.02 дБ 4:17 06-The PreacherDR15 -0.23 дБ -16.92 дБ 5:17 07-Hankerin'DR15 -0.49 дБ -18.38 дБ 6:45 08-Doodlin'--------------------------------------------------------------------------------
Количество треков: 8Реальные значения DR: DR14
Частота: 48000 ГцКаналов: 2Разрядность: 24Битрейт: 1461 кбит/сКодек: ALAC================================================================================

Скриншот спектра частот

CD07 - Kenny Dorham - Afro-Cuban (1957)

01. Kenny Dorham - Afrodisia [05:05]
02. Kenny Dorham - Lotus Flower [04:17]
03. Kenny Dorham - Minors Holiday [04:26]
04. Kenny Dorham - Basheer's Dream [05:03]
05. Kenny Dorham - K.D.'s Motion [05:28]
06. Kenny Dorham - La Villa [05:23]
07. Kenny Dorham - Venita's Dance [05:21]
Продолжительность: 00:35:01
Dynamic Range Meter
foobar2000 1.3.10 / Замер динамического диапазона (DR) 1.1.1Дата отчёта: 2016-06-19 14:04:35
--------------------------------------------------------------------------------Анализ: Kenny Dorham / Afro-Cuban--------------------------------------------------------------------------------
DR Пики RMS Продолжительность трека--------------------------------------------------------------------------------DR10 -1.62 дБ -13.39 дБ 5:05 01-AfrodisiaDR9 -2.91 дБ -14.11 дБ 4:17 02-Lotus FlowerDR10 -0.52 дБ -12.04 дБ 4:26 03-Minors HolidayDR10 -1.13 дБ -12.68 дБ 5:02 04-Basheer's DreamDR14 -0.92 дБ -16.77 дБ 5:28 05-K.D.'s MotionDR11 -1.02 дБ -13.70 дБ 5:23 06-La VillaDR12 -0.75 дБ -14.29 дБ 5:20 07-Venita's Dance--------------------------------------------------------------------------------
Количество треков: 7Реальные значения DR: DR11
Частота: 48000 ГцКаналов: 2Разрядность: 24Битрейт: 1555 кбит/сКодек: ALAC================================================================================

Скриншот спектра частот

CD08 - Sonny Rollins - Sonny Rollins, Vol. 1 (1957)

1. Sonny Rollins - Decision [08:02]
2. Sonny Rollins - Bluesnote [07:00]
3. Sonny Rollins - How Are Things In Glocca Morra? [06:19]
4. Sonny Rollins - Plain Jane [09:58]
5. Sonny Rollins - Sonnysphere [09:37]
Продолжительность: 00:40:54
Dynamic Range Meter
foobar2000 1.3.10 / Замер динамического диапазона (DR) 1.1.1Дата отчёта: 2016-06-19 14:05:11
--------------------------------------------------------------------------------Анализ: Sonny Rollins / Sonny Rollins, Vol. 1--------------------------------------------------------------------------------
DR Пики RMS Продолжительность трека--------------------------------------------------------------------------------DR14 -1.03 дБ -17.30 дБ 8:01 01-DecisionDR12 -0.44 дБ -14.66 дБ 6:59 02-BluesnoteDR12 -0.95 дБ -17.17 дБ 6:19 03-How Are Things In Glocca Morra?DR11 -1.09 дБ -14.61 дБ 9:57 04-Plain JaneDR12 -0.49 дБ -13.84 дБ 9:37 05-Sonnysphere--------------------------------------------------------------------------------
Количество треков: 5Реальные значения DR: DR12
Частота: 48000 ГцКаналов: 2Разрядность: 24Битрейт: 1447 кбит/сКодек: ALAC================================================================================

Скриншот спектра частот

CD09 - Sonny Rollins - Sonny Rollins, Vol. 2 (1957)

1. Sonny Rollins - Why Don't I ? [05:44]
2. Sonny Rollins - Wail March [06:11]
3. Sonny Rollins - Misterioso [09:24]
4. Sonny Rollins - Reflections [07:02]
5. Sonny Rollins - You Stepped Out Of A Dream [06:24]
6. Sonny Rollins - Poor Butterfly [06:06]
Продолжительность: 00:40:49
Dynamic Range Meter
foobar2000 1.3.10 / Замер динамического диапазона (DR) 1.1.1Дата отчёта: 2016-06-19 14:05:47
--------------------------------------------------------------------------------Анализ: Sonny Rollins / Sonny Rollins, Vol. 2--------------------------------------------------------------------------------
DR Пики RMS Продолжительность трека--------------------------------------------------------------------------------DR12 -0.44 дБ -13.46 дБ 5:43 01-Why Don't I ?DR11 -0.27 дБ -13.22 дБ 6:11 02-Wail MarchDR12 0.00 дБ -14.10 дБ 9:24 03-MisteriosoDR12 -0.54 дБ -14.74 дБ 7:02 04-ReflectionsDR12 -0.16 дБ -13.75 дБ 6:23 05-You Stepped Out Of A DreamDR12 -0.55 дБ -14.08 дБ 6:06 06-Poor Butterfly--------------------------------------------------------------------------------
Количество треков: 6Реальные значения DR: DR12
Частота: 48000 ГцКаналов: 2Разрядность: 24Битрейт: 1359 кбит/сКодек: ALAC================================================================================

Скриншот спектра частот

CD10 - John Coltrane - Blue Train (1957)

1. John Coltrane - Blue Train [10:43]
2. John Coltrane - Moment's Notice [09:10]
3. John Coltrane - Locomotion [07:15]
4. John Coltrane - I'm Old Fashioned [07:59]
5. John Coltrane - Lazy Bird [07:07]
Продолжительность: 00:42:12
Dynamic Range Meter
foobar2000 1.3.10 / Замер динамического диапазона (DR) 1.1.1Дата отчёта: 2016-06-19 14:06:27
--------------------------------------------------------------------------------Анализ: John Coltrane / Blue Train--------------------------------------------------------------------------------
DR Пики RMS Продолжительность трека--------------------------------------------------------------------------------DR13 -0.74 дБ -17.79 дБ 10:43 01-Blue TrainDR12 -0.87 дБ -16.28 дБ 9:09 02-Moment's NoticeDR13 -0.18 дБ -16.44 дБ 7:15 03-LocomotionDR14 -1.57 дБ -18.56 дБ 7:58 04-I'm Old FashionedDR12 -2.42 дБ -17.09 дБ 7:06 05-Lazy Bird--------------------------------------------------------------------------------
Количество треков: 5Реальные значения DR: DR13
Частота: 48000 ГцКаналов: 2Разрядность: 24Битрейт: 1855 кбит/сКодек: ALAC================================================================================

Скриншот спектра частот

CD11 - Sonny Rollins - Newk's Time (1958)

1. Sonny Rollins - Tune Up [05:44]
2. Sonny Rollins - Asiatic Raes [05:57]
3. Sonny Rollins - Wonderful! Wonderful! [06:00]
4. Sonny Rollins - The Surrey With The Fringe On Top [06:31]
5. Sonny Rollins - Blues For Philly Joe [06:43]
6. Sonny Rollins - Namely You [03:20]
Продолжительность: 00:34:13
Dynamic Range Meter
foobar2000 1.3.10 / Замер динамического диапазона (DR) 1.1.1Дата отчёта: 2016-06-19 14:07:01
--------------------------------------------------------------------------------Анализ: Sonny Rollins / Newk's Time--------------------------------------------------------------------------------
DR Пики RMS Продолжительность трека--------------------------------------------------------------------------------DR13 -0.73 дБ -16.14 дБ 5:44 01-Tune UpDR12 -1.15 дБ -16.08 дБ 5:56 02-Asiatic RaesDR13 -0.42 дБ -15.81 дБ 5:59 03-Wonderful! Wonderful!DR13 -1.31 дБ -16.76 дБ 6:31 04-The Surrey With The Fringe On TopDR12 -0.08 дБ -14.68 дБ 6:43 05-Blues For Philly JoeDR15 -0.41 дБ -17.67 дБ 3:19 06-Namely You--------------------------------------------------------------------------------
Количество треков: 6Реальные значения DR: DR13
Частота: 48000 ГцКаналов: 2Разрядность: 24Битрейт: 1652 кбит/сКодек: ALAC================================================================================

Скриншот спектра частот

CD12 - Sonny Rollins - Village Vanguard (1957)

01. Sonny Rollins - A Night In Tunisia (Afternoon Take) [07:51]
02. Sonny Rollins - I've Got You Under My Skin (Afternoon Take) [09:59]
03. Sonny Rollins - A Night In Tunisia (Evening Take) [08:58]
04. Sonny Rollins - Softly As In A Morning Sunrise (Evening Take) [06:43]
05. Sonny Rollins - Four (Evening Take) [08:35]
06. Sonny Rollins - Introduction 1 [00:30]
07. Sonny Rollins - Woody 'N You (Evening Take) [08:29]
08. Sonny Rollins - Introduction 2 [00:44]
09. Sonny Rollins - Old Devil Moon (Evening Take) [07:54]
10. Sonny Rollins - What Is This Thing Called Love (Evening Take) [13:34]
11. Sonny Rollins - Softly As In A Morning Sunrise [07:44]
12. Sonny Rollins - Sonnymoon For Two (Evening Take) [08:38]
13. Sonny Rollins - I Can't Get Started [04:30]
14. Sonny Rollins - I'll Remember April (Evening Take) [09:02]
15. Sonny Rollins - Get Happy (Evening Take) [08:56]
16. Sonny Rollins - Striver's Row (Evening Take) [05:53]
17. Sonny Rollins - All The Things You Are (Evening Take) [06:39]
18. Sonny Rollins - Get Happy (Afternoon Take) [04:38]
Продолжительность: 02:09:10
Dynamic Range Meter
foobar2000 1.3.10 / Замер динамического диапазона (DR) 1.1.1Дата отчёта: 2016-06-19 14:08:22
--------------------------------------------------------------------------------Анализ: Sonny Rollins / A Night At The Village Vanguard--------------------------------------------------------------------------------
DR Пики RMS Продолжительность трека--------------------------------------------------------------------------------DR15 -0.76 дБ -17.23 дБ 7:50 01-A Night In Tunisia (Afternoon Take)DR14 -1.37 дБ -17.27 дБ 9:58 02-I've Got You Under My Skin (Afternoon Take)DR15 0.00 дБ -17.97 дБ 8:58 03-A Night In Tunisia (Evening Take)DR13 -1.68 дБ -19.54 дБ 6:43 04-Softly As In A Morning Sunrise (Evening Take)DR14 -1.16 дБ -16.92 дБ 8:35 05-Four (Evening Take)DR17 -3.73 дБ -24.89 дБ 0:30 06-Introduction 1DR14 -0.15 дБ -16.88 дБ 8:29 07-Woody 'N You (Evening Take)DR13 -8.31 дБ -26.06 дБ 0:43 08-Introduction 2DR15 0.00 дБ -17.22 дБ 7:54 09-Old Devil Moon (Evening Take)DR16 -0.26 дБ -18.76 дБ 13:33 10-What Is This Thing Called Love (Evening Take)DR16 0.00 дБ -19.52 дБ 7:44 11-Softly As In A Morning SunriseDR15 -0.28 дБ -17.55 дБ 8:38 12-Sonnymoon For Two (Evening Take)DR14 -2.95 дБ -20.66 дБ 4:29 13-I Can't Get StartedDR16 -0.92 дБ -18.96 дБ 9:02 14-I'll Remember April (Evening Take)DR16 -0.81 дБ -19.13 дБ 8:55 15-Get Happy (Evening Take)DR13 -1.10 дБ -16.69 дБ 5:52 16-Striver's Row (Evening Take)DR13 -2.04 дБ -18.59 дБ 6:38 17-All The Things You Are (Evening Take)DR13 -1.54 дБ -17.40 дБ 4:38 18-Get Happy (Afternoon Take)--------------------------------------------------------------------------------
Количество треков: 18Реальные значения DR: DR15
Частота: 48000 ГцКаналов: 2Разрядность: 24Битрейт: 1347 кбит/сКодек: ALAC================================================================================

Скриншот спектра частот

CD13 - Lou Donaldson - Lou Takes Off (1958)

01. Lou Donaldson - Sputnik [10:02]
02. Lou Donaldson - Dewey Square [07:16]
03. Lou Donaldson - Strollin' In [14:35]
04. Lou Donaldson - Groovin' High [06:23]
Продолжительность: 00:38:14
Dynamic Range Meter
foobar2000 1.3.10 / Замер динамического диапазона (DR) 1.1.1Дата отчёта: 2016-06-19 14:08:57
--------------------------------------------------------------------------------Анализ: Lou Donaldson / Lou Takes Off--------------------------------------------------------------------------------
DR Пики RMS Продолжительность трека--------------------------------------------------------------------------------DR13 -0.80 дБ -15.71 дБ 10:02 01-SputnikDR13 -0.64 дБ -15.39 дБ 7:15 02-Dewey SquareDR15 0.00 дБ -17.47 дБ 14:35 03-Strollin' InDR13 -0.34 дБ -15.48 дБ 6:22 04-Groovin' High--------------------------------------------------------------------------------
Количество треков: 4Реальные значения DR: DR13
Частота: 48000 ГцКаналов: 2Разрядность: 24Битрейт: 1479 кбит/сКодек: ALAC================================================================================

Скриншот спектра частот

CD14 - Sonny Clark - Cool Struttin' (1958)

01. Sonny Clark - Cool Struttin' [09:23]
02. Sonny Clark - Blue Minor [10:22]
03. Sonny Clark - Sippin' At Bells [08:18]
04. Sonny Clark - Deep Night [09:34]
Продолжительность: 00:37:36
Dynamic Range Meter
foobar2000 1.3.10 / Замер динамического диапазона (DR) 1.1.1Дата отчёта: 2016-06-19 14:09:35
--------------------------------------------------------------------------------Анализ: Sonny Clark / Cool Struttin'--------------------------------------------------------------------------------
DR Пики RMS Продолжительность трека--------------------------------------------------------------------------------DR16 -0.06 дБ -19.48 дБ 9:22 01-Cool Struttin'DR15 -0.45 дБ -17.85 дБ 10:22 02-Blue MinorDR15 -0.52 дБ -17.67 дБ 8:17 03-Sippin' At BellsDR15 0.00 дБ -17.70 дБ 9:34 04-Deep Night--------------------------------------------------------------------------------
Количество треков: 4Реальные значения DR: DR15
Частота: 48000 ГцКаналов: 2Разрядность: 24Битрейт: 1774 кбит/сКодек: ALAC================================================================================

Скриншот спектра частот

CD15 - Cannonball Adderley - Somethin' Else (1958)

01. Cannonball Adderley - Autumn Leaves [10:59]
02. Cannonball Adderley - Love For Sale [07:08]
03. Cannonball Adderley - Somethin' Else [08:07]
04. Cannonball Adderley - One For Daddy-O [08:23]
05. Cannonball Adderley - Dancing In The Dark [04:09]
Продолжительность: 00:38:44
Dynamic Range Meter
foobar2000 1.3.10 / Замер динамического диапазона (DR) 1.1.1Дата отчёта: 2016-06-19 14:10:10
--------------------------------------------------------------------------------Анализ: Cannonball Adderley / Somethin' Else--------------------------------------------------------------------------------
DR Пики RMS Продолжительность трека--------------------------------------------------------------------------------DR12 -1.81 дБ -17.58 дБ 10:58 01-Autumn LeavesDR11 -2.14 дБ -16.07 дБ 7:07 02-Love For SaleDR11 -1.88 дБ -15.07 дБ 8:06 03-Somethin' ElseDR9 -2.92 дБ -15.10 дБ 8:23 04-One For Daddy-ODR11 -2.44 дБ -16.21 дБ 4:08 05-Dancing In The Dark--------------------------------------------------------------------------------
Количество треков: 5Реальные значения DR: DR11
Частота: 48000 ГцКаналов: 2Разрядность: 24Битрейт: 1363 кбит/сКодек: ALAC================================================================================

Скриншот спектра частот

CD16 - The Three Sounds - Introducing The 3 Sounds (1959)

1. The Three Sounds - Tenderly [04:33]
2. The Three Sounds - Willow Weep For Me [04:40]
3. The Three Sounds - Both Sides [04:39]
4. The Three Sounds - Blue Bells [04:26]
5. The Three Sounds - It's Nice [04:38]
6. The Three Sounds - Goin' Home [03:52]
7. The Three Sounds - Would'n You [07:10]
8. The Three Sounds - O Sole Mio [03:58]
Продолжительность: 00:37:53
Dynamic Range Meter
foobar2000 1.3.10 / Замер динамического диапазона (DR) 1.1.1Дата отчёта: 2016-06-19 14:10:46
--------------------------------------------------------------------------------Анализ: The Three Sounds / Introducing The 3 Sounds--------------------------------------------------------------------------------
DR Пики RMS Продолжительность трека--------------------------------------------------------------------------------DR13 0.00 дБ -16.56 дБ 4:33 01-TenderlyDR13 -0.77 дБ -18.21 дБ 4:39 02-Willow Weep For MeDR13 0.00 дБ -16.35 дБ 4:39 03-Both SidesDR14 -2.05 дБ -19.44 дБ 4:26 04-Blue BellsDR13 0.00 дБ -17.11 дБ 4:37 05-It's NiceDR14 -1.55 дБ -18.94 дБ 3:52 06-Goin' HomeDR12 0.00 дБ -15.66 дБ 7:10 07-Would'n YouDR14 -0.40 дБ -17.53 дБ 3:57 08-O Sole Mio--------------------------------------------------------------------------------
Количество треков: 8Реальные значения DR: DR13
Частота: 48000 ГцКаналов: 2Разрядность: 24Битрейт: 1814 кбит/сКодек: ALAC================================================================================

Скриншот спектра частот

CD17 - Art Blakey & The Jazz Messengers - Moanin' (1959)

1. Art Blakey & The Jazz Messengers - Moanin' [09:34]
2. Art Blakey & The Jazz Messengers - Are You Real [04:50]
3. Art Blakey & The Jazz Messengers - Along Came Betty [06:10]
4. Art Blakey & The Jazz Messengers - The Drum Thunder Suite [07:33]
5. Art Blakey & The Jazz Messengers - Blues March [06:16]
6. Art Blakey & The Jazz Messengers - Come Rain Or Come Shine [05:47]
Продолжительность: 00:40:07
Dynamic Range Meter
foobar2000 1.3.10 / Замер динамического диапазона (DR) 1.1.1Дата отчёта: 2016-06-19 14:11:21
--------------------------------------------------------------------------------Анализ: Art Blakey & The Jazz Messengers / Moanin'--------------------------------------------------------------------------------
DR Пики RMS Продолжительность трека--------------------------------------------------------------------------------DR13 -0.81 дБ -17.77 дБ 9:33 01-Moanin'DR11 -0.23 дБ -15.08 дБ 4:49 02-Are You RealDR14 0.00 дБ -17.28 дБ 6:10 03-Along Came BettyDR12 -0.04 дБ -14.87 дБ 7:32 04-The Drum Thunder SuiteDR13 0.00 дБ -16.26 дБ 6:15 05-Blues MarchDR13 0.00 дБ -16.39 дБ 5:47 06-Come Rain Or Come Shine--------------------------------------------------------------------------------
Количество треков: 6Реальные значения DR: DR12
Частота: 48000 ГцКаналов: 2Разрядность: 24Битрейт: 1794 кбит/сКодек: ALAC================================================================================

Скриншот спектра частот

CD18 - Horace Silver - Blowin' The Blues Away (1959)

01. Horace Silver - Blowin' The Blues Away [04:43]
02. Horace Silver - The St. Vitus Dance [04:09]
03. Horace Silver - Break City [04:56]
04. Horace Silver - Peace [06:01]
05. Horace Silver - Sister Sadie [06:17]
06. Horace Silver - Baghdad Blues [04:51]
07. Horace Silver - Melancholy Mood [07:08]
Продолжительность: 00:38:02
Dynamic Range Meter
foobar2000 1.3.10 / Замер динамического диапазона (DR) 1.1.1Дата отчёта: 2016-06-19 14:11:59
--------------------------------------------------------------------------------Анализ: Horace Silver / Blowin' The Blues Away--------------------------------------------------------------------------------
DR Пики RMS Продолжительность трека--------------------------------------------------------------------------------DR12 -0.88 дБ -15.07 дБ 4:42 01-Blowin' The Blues AwayDR13 -1.22 дБ -18.08 дБ 4:09 02-The St. Vitus DanceDR11 -0.30 дБ -15.44 дБ 4:56 03-Break CityDR13 -1.63 дБ -20.11 дБ 6:00 04-PeaceDR12 -0.68 дБ -16.01 дБ 6:17 05-Sister SadieDR12 -0.83 дБ -15.14 дБ 4:51 06-Baghdad BluesDR12 -4.11 дБ -19.40 дБ 7:07 07-Melancholy Mood--------------------------------------------------------------------------------
Количество треков: 7Реальные значения DR: DR12
Частота: 48000 ГцКаналов: 2Разрядность: 24Битрейт: 1537 кбит/сКодек: ALAC================================================================================

Скриншот спектра частот

CD19 - Hank Mobley - Soul Station (1960)

1. Hank Mobley - Remember [05:40]
2. Hank Mobley - This I Dig Of You [06:25]
3. Hank Mobley - Dig Dis [06:08]
4. Hank Mobley - Split Feelin's [04:54]
5. Hank Mobley - Soul Station [09:06]
6. Hank Mobley - If I Should Lose You [05:09]
Продолжительность: 00:37:20
Dynamic Range Meter
foobar2000 1.3.10 / Замер динамического диапазона (DR) 1.1.1Дата отчёта: 2016-06-19 14:12:34
--------------------------------------------------------------------------------Анализ: Hank Mobley / Soul Station--------------------------------------------------------------------------------
DR Пики RMS Продолжительность трека--------------------------------------------------------------------------------DR12 -2.05 дБ -16.69 дБ 5:40 01-RememberDR11 -0.57 дБ -15.09 дБ 6:24 02-This I Dig Of YouDR12 -0.82 дБ -16.16 дБ 6:07 03-Dig DisDR12 -1.89 дБ -16.65 дБ 4:54 04-Split Feelin'sDR12 -1.54 дБ -16.73 дБ 9:06 05-Soul StationDR12 -1.79 дБ -16.36 дБ 5:09 06-If I Should Lose You--------------------------------------------------------------------------------
Количество треков: 6Реальные значения DR: DR12
Частота: 48000 ГцКаналов: 2Разрядность: 24Битрейт: 1772 кбит/сКодек: ALAC================================================================================

Скриншот спектра частот

CD20 - Jimmy Smith - Back At The Chicken Shack (1960)

01. Jimmy Smith - Back At The Chicken Shack [08:04]
02. Jimmy Smith - When I Grow Too Old To Dream [09:54]
03. Jimmy Smith - Minor Chant [07:32]
04. Jimmy Smith - Messy Bessie [12:29]
Продолжительность: 00:37:57
Dynamic Range Meter
foobar2000 1.3.10 / Замер динамического диапазона (DR) 1.1.1Дата отчёта: 2016-06-19 13:55:21
--------------------------------------------------------------------------------Анализ: Jimmy Smith / Back At The Chicken Shack--------------------------------------------------------------------------------
DR Пики RMS Продолжительность трека--------------------------------------------------------------------------------DR12 -0.11 дБ -16.09 дБ 8:04 01-Back At The Chicken ShackDR11 -1.08 дБ -16.21 дБ 9:53 02-When I Grow Too Old To DreamDR11 -0.26 дБ -15.24 дБ 7:31 03-Minor ChantDR11 -0.84 дБ -15.09 дБ 12:28 04-Messy Bessie--------------------------------------------------------------------------------
Количество треков: 4Реальные значения DR: DR11
Частота: 48000 ГцКаналов: 2Разрядность: 24Битрейт: 1729 кбит/сКодек: ALAC================================================================================

Скриншот спектра частот

CD21 - Jimmy Smith - Midnight Special (1961)

01. Jimmy Smith - Midnight Special [09:54]
02. Jimmy Smith - A Subtle One [07:44]
03. Jimmy Smith - Jumpin' The Blues [05:26]
04. Jimmy Smith - Why Was I Born? [06:33]
05. Jimmy Smith - One O'Clock Jump [07:00]
Продолжительность: 00:36:35
Dynamic Range Meter
foobar2000 1.3.10 / Замер динамического диапазона (DR) 1.1.1Дата отчёта: 2016-06-19 14:20:07
--------------------------------------------------------------------------------Анализ: Jimmy Smith / Midnight Special--------------------------------------------------------------------------------
DR Пики RMS Продолжительность трека--------------------------------------------------------------------------------DR15 0.00 дБ -18.71 дБ 9:54 01-Midnight SpecialDR13 -1.21 дБ -17.23 дБ 7:43 02-A Subtle OneDR12 -1.09 дБ -16.51 дБ 5:26 03-Jumpin' The BluesDR14 0.00 дБ -18.88 дБ 6:33 04-Why Was I Born?DR13 -0.08 дБ -17.97 дБ 6:59 05-One O'Clock Jump--------------------------------------------------------------------------------
Количество треков: 5Реальные значения DR: DR13
Частота: 48000 ГцКаналов: 2Разрядность: 24Битрейт: 1609 кбит/сКодек: ALAC================================================================================

Скриншот спектра частот

CD22 - Tina Brooks - True Blue (1960)

01. Tina Brooks - Good Old Soul [08:06]
02. Tina Brooks - Up Tight's Creek [05:17]
03. Tina Brooks - Theme For Doris [05:51]
04. Tina Brooks - True Blue [04:57]
05. Tina Brooks - Miss Hazel [05:31]
06. Tina Brooks - Nothing Ever Changes My Love For You [07:52]
Продолжительность: 00:37:32
Dynamic Range Meter
foobar2000 1.3.10 / Замер динамического диапазона (DR) 1.1.1Дата отчёта: 2016-06-19 14:22:04
--------------------------------------------------------------------------------Анализ: Tina Brooks / True Blue--------------------------------------------------------------------------------
DR Пики RMS Продолжительность трека--------------------------------------------------------------------------------DR12 -0.17 дБ -16.97 дБ 8:05 01-Good Old SoulDR12 -0.23 дБ -16.42 дБ 5:17 02-Up Tight's CreekDR12 -0.86 дБ -15.78 дБ 5:50 03-Theme For DorisDR11 0.00 дБ -15.21 дБ 4:57 04-True BlueDR12 0.00 дБ -15.57 дБ 5:31 05-Miss HazelDR12 -0.05 дБ -16.01 дБ 7:52 06-Nothing Ever Changes My Love For You--------------------------------------------------------------------------------
Количество треков: 6Реальные значения DR: DR12
Частота: 48000 ГцКаналов: 2Разрядность: 24Битрейт: 1701 кбит/сКодек: ALAC================================================================================

Скриншот спектра частот

CD23 - Art Blakey & TJM - A Night In Tunisia (1960)

1. Art Blakey & The Jazz Messengers - A Night In Tunisia [11:15]
2. Art Blakey & The Jazz Messengers - Sincerely Diana [06:49]
3. Art Blakey & The Jazz Messengers - So Tired [06:38]
4. Art Blakey & The Jazz Messengers - Yama [06:24]
5. Art Blakey & The Jazz Messengers - Kozo's Waltz [06:48]
Продолжительность: 00:37:52
Dynamic Range Meter
foobar2000 1.3.10 / Замер динамического диапазона (DR) 1.1.1Дата отчёта: 2016-06-19 14:24:17
--------------------------------------------------------------------------------Анализ: Art Blakey & The Jazz Messengers / A Night In Tunisia--------------------------------------------------------------------------------
DR Пики RMS Продолжительность трека--------------------------------------------------------------------------------DR10 -0.75 дБ -13.55 дБ 11:14 01-A Night In TunisiaDR10 -1.61 дБ -15.12 дБ 6:49 02-Sincerely DianaDR11 -1.07 дБ -15.26 дБ 6:38 03-So TiredDR13 -2.53 дБ -19.04 дБ 6:23 04-YamaDR11 -1.56 дБ -15.87 дБ 6:48 05-Kozo's Waltz--------------------------------------------------------------------------------
Количество треков: 5Реальные значения DR: DR11
Частота: 48000 ГцКаналов: 2Разрядность: 24Битрейт: 1835 кбит/сКодек: ALAC================================================================================

Скриншот спектра частот

CD24 - Hank Mobley - Workout (1961)

01. Hank Mobley - Workout [09:59]
02. Hank Mobley - Uh Huh [10:45]
03. Hank Mobley - Smokin' [07:28]
04. Hank Mobley - The Best Things in Life Are Free [05:17]
05. Hank Mobley - Greasin' Easy [06:56]
Продолжительность: 00:40:23
Dynamic Range Meter
foobar2000 1.3.10 / Замер динамического диапазона (DR) 1.1.1Дата отчёта: 2016-06-19 14:27:10
--------------------------------------------------------------------------------Анализ: Hank Mobley / Workout--------------------------------------------------------------------------------
DR Пики RMS Продолжительность трека--------------------------------------------------------------------------------DR13 -0.38 дБ -18.01 дБ 9:58 01-WorkoutDR13 -1.25 дБ -19.43 дБ 10:45 02-Uh HuhDR12 -0.34 дБ -15.73 дБ 7:28 03-Smokin'DR14 -2.40 дБ -20.62 дБ 5:16 04-The Best Things in Life Are FreeDR13 -2.02 дБ -19.65 дБ 6:56 05-Greasin' Easy--------------------------------------------------------------------------------
Количество треков: 5Реальные значения DR: DR13
Частота: 48000 ГцКаналов: 2Разрядность: 24Битрейт: 1704 кбит/сКодек: ALAC================================================================================

Скриншот спектра частот

CD25 - Grant Green - Green Street (1961)

01. Grant Green - No. 1 Green Street [07:19]
02. Grant Green - Round About Midnight [07:03]
03. Grant Green - Grant's Dimensions [07:55]
04. Grant Green - Green With Envy [09:46]
05. Grant Green - Alone Together [07:15]
Продолжительность: 00:39:16
Dynamic Range Meter
foobar2000 1.3.10 / Замер динамического диапазона (DR) 1.1.1Дата отчёта: 2016-06-19 14:29:28
--------------------------------------------------------------------------------Анализ: Grant Green / Green Street--------------------------------------------------------------------------------
DR Пики RMS Продолжительность трека--------------------------------------------------------------------------------DR14 -0.90 дБ -17.11 дБ 7:19 01-No. 1 Green StreetDR17 -0.44 дБ -19.75 дБ 7:02 02-Round About MidnightDR14 0.00 дБ -18.16 дБ 7:55 03-Grant's DimensionsDR14 -0.78 дБ -18.34 дБ 9:45 04-Green With EnvyDR15 -0.34 дБ -17.45 дБ 7:15 05-Alone Together--------------------------------------------------------------------------------
Количество треков: 5Реальные значения DR: DR15
Частота: 48000 ГцКаналов: 2Разрядность: 24Битрейт: 1689 кбит/сКодек: ALAC================================================================================

Скриншот спектра частот

CD26 - Freddie Hubbard - Ready For Freddie (1961)

01. Freddie Hubbard - Arietis [06:41]
02. Freddie Hubbard - Weaver Of Dreams [06:37]
03. Freddie Hubbard - Marie Antoinette [06:40]
04. Freddie Hubbard - Birdlike [10:19]
05. Freddie Hubbard - Crisis [11:45]
Продолжительность: 00:42:00
Dynamic Range Meter
foobar2000 1.3.10 / Замер динамического диапазона (DR) 1.1.1Дата отчёта: 2016-06-19 14:31:25
--------------------------------------------------------------------------------Анализ: Freddie Hubbard / Ready For Freddie--------------------------------------------------------------------------------
DR Пики RMS Продолжительность трека--------------------------------------------------------------------------------DR12 -1.40 дБ -17.04 дБ 6:41 01-ArietisDR15 0.00 дБ -19.85 дБ 6:37 02-Weaver Of DreamsDR11 -0.33 дБ -15.32 дБ 6:39 03-Marie AntoinetteDR13 -0.16 дБ -17.41 дБ 10:18 04-BirdlikeDR14 -0.16 дБ -18.80 дБ 11:44 05-Crisis--------------------------------------------------------------------------------
Количество треков: 5Реальные значения DR: DR13
Частота: 48000 ГцКаналов: 2Разрядность: 24Битрейт: 1697 кбит/сКодек: ALAC================================================================================

Скриншот спектра частот

CD27 - Art Blakey - Mosaic (1961)

01. Art Blakey - Mosaic [08:11]
02. Art Blakey - Down Under [05:29]
03. Art Blakey - Children Of The Night [08:50]
04. Art Blakey - Arabia [09:09]
05. Art Blakey - Crisis [08:32]
Продолжительность: 00:40:08
Dynamic Range Meter
foobar2000 1.3.10 / Замер динамического диапазона (DR) 1.1.1Дата отчёта: 2016-06-19 14:35:17
--------------------------------------------------------------------------------Анализ: Art Blakey / Mosaic--------------------------------------------------------------------------------
DR Пики RMS Продолжительность трека--------------------------------------------------------------------------------DR10 -0.17 дБ -14.14 дБ 8:11 01-MosaicDR10 -0.33 дБ -14.16 дБ 5:28 02-Down UnderDR10 -1.22 дБ -14.73 дБ 8:49 03-Children Of The NightDR12 0.00 дБ -15.41 дБ 9:08 04-ArabiaDR11 -0.51 дБ -15.30 дБ 8:31 05-Crisis--------------------------------------------------------------------------------
Количество треков: 5Реальные значения DR: DR10
Частота: 48000 ГцКаналов: 2Разрядность: 24Битрейт: 1784 кбит/сКодек: ALAC================================================================================

Скриншот спектра частот

CD28 - Stanley Turrentine - That's Where... (1962)

1. Stanley Turrentine - Smile, Stacey [08:06]
2. Stanley Turrentine - Soft Pedal Blues [07:27]
3. Stanley Turrentine - Pia [05:36]
4. Stanley Turrentine - We'll See Yaw'll After While, Ya Heah [07:21]
5. Stanley Turrentine - Dorene Don't Cry, I [06:13]
6. Stanley Turrentine - Light Blue [06:32]
Продолжительность: 00:41:13
Dynamic Range Meter
foobar2000 1.3.10 / Замер динамического диапазона (DR) 1.1.1Дата отчёта: 2016-06-19 14:47:28
--------------------------------------------------------------------------------Анализ: Stanley Turrentine / That’s Where It’s At--------------------------------------------------------------------------------
DR Пики RMS Продолжительность трека--------------------------------------------------------------------------------DR12 -1.11 дБ -16.56 дБ 8:06 01-Smile, StaceyDR15 -1.03 дБ -21.18 дБ 7:26 02-Soft Pedal BluesDR14 -1.05 дБ -18.19 дБ 5:35 03-PiaDR13 -2.77 дБ -18.35 дБ 7:21 04-We'll See Yaw'll After While, Ya HeahDR13 -2.85 дБ -20.61 дБ 6:13 05-Dorene Don't Cry, IDR14 -1.69 дБ -18.90 дБ 6:31 06-Light Blue--------------------------------------------------------------------------------
Количество треков: 6Реальные значения DR: DR14
Частота: 48000 ГцКаналов: 2Разрядность: 24Битрейт: 1710 кбит/сКодек: ALAC================================================================================

Скриншот спектра частот

CD29 - Jackie McLean - Let Freedom Ring (1962)

1. Jackie McLean - Melody For Melonae [13:20]
2. Jackie McLean - I'll Keep Loving You [06:17]
3. Jackie McLean - Rene [10:02]
4. Jackie McLean - Omega [08:32]
Продолжительность: 00:38:09
Dynamic Range Meter
foobar2000 1.3.10 / Замер динамического диапазона (DR) 1.1.1Дата отчёта: 2016-06-19 14:49:21
--------------------------------------------------------------------------------Анализ: Jackie McLean / Let Freedom Ring--------------------------------------------------------------------------------
DR Пики RMS Продолжительность трека--------------------------------------------------------------------------------DR12 -0.23 дБ -15.18 дБ 13:20 01-Melody For MelonaeDR12 -3.23 дБ -18.99 дБ 6:16 02-I'll Keep Loving YouDR12 -0.01 дБ -15.46 дБ 10:02 03-ReneDR12 -0.07 дБ -15.22 дБ 8:32 04-Omega--------------------------------------------------------------------------------
Количество треков: 4Реальные значения DR: DR12
Частота: 48000 ГцКаналов: 2Разрядность: 24Битрейт: 1856 кбит/сКодек: ALAC================================================================================

Скриншот спектра частот

CD30 - Herbie Hancock - Takin' Off (1962)

1. Herbie Hancock - Watermelon Man [07:11]
2. Herbie Hancock - Three Bags Full [05:28]
3. Herbie Hancock - Empty Pockets [06:11]
4. Herbie Hancock - The Maze [06:48]
5. Herbie Hancock - Driftin' [06:59]
6. Herbie Hancock - Alone And I [06:31]
Продолжительность: 00:38:05
Dynamic Range Meter
foobar2000 1.3.10 / Замер динамического диапазона (DR) 1.1.1Дата отчёта: 2016-06-19 14:55:16
--------------------------------------------------------------------------------Анализ: Herbie Hancock / Takin' Off--------------------------------------------------------------------------------
DR Пики RMS Продолжительность трека--------------------------------------------------------------------------------DR13 -0.90 дБ -17.80 дБ 7:10 01-Watermelon ManDR12 -1.32 дБ -16.68 дБ 5:28 02-Three Bags FullDR14 -0.32 дБ -17.75 дБ 6:10 03-Empty PocketsDR12 -0.93 дБ -16.05 дБ 6:47 04-The MazeDR12 -0.23 дБ -15.88 дБ 6:58 05-Driftin'DR13 -3.38 дБ -22.30 дБ 6:31 06-Alone And I--------------------------------------------------------------------------------
Количество треков: 6Реальные значения DR: DR12
Частота: 48000 ГцКаналов: 2Разрядность: 24Битрейт: 1494 кбит/сКодек: ALAC================================================================================

Скриншот спектра частот

CD31 - Dexter Gordon - Go (1962)

1. Dexter Gordon - Cheese Cake [06:32]
2. Dexter Gordon - I Guess I'll Hang My Tears Out To Dry [05:22]
3. Dexter Gordon - Second Balcony Jump [07:06]
4. Dexter Gordon - Love For Sale [07:38]
5. Dexter Gordon - Where Are You? [05:19]
6. Dexter Gordon - Three O'Clock In The Morning [05:42]
Продолжительность: 00:37:35
Dynamic Range Meter
foobar2000 1.3.10 / Замер динамического диапазона (DR) 1.1.1Дата отчёта: 2016-06-19 15:00:26
--------------------------------------------------------------------------------Анализ: Dexter Gordon / Go--------------------------------------------------------------------------------
DR Пики RMS Продолжительность трека--------------------------------------------------------------------------------DR12 -2.19 дБ -16.16 дБ 6:31 01-Cheese CakeDR13 -2.80 дБ -19.47 дБ 5:21 02-I Guess I'll Hang My Tears Out To DryDR12 -0.18 дБ -15.96 дБ 7:05 03-Second Balcony JumpDR12 -0.73 дБ -15.82 дБ 7:38 04-Love For SaleDR13 -1.72 дБ -18.17 дБ 5:19 05-Where Are You?DR12 -2.73 дБ -17.42 дБ 5:41 06-Three O'Clock In The Morning--------------------------------------------------------------------------------
Количество треков: 6Реальные значения DR: DR12
Частота: 48000 ГцКаналов: 2Разрядность: 24Битрейт: 1787 кбит/сКодек: ALAC================================================================================

Скриншот спектра частот

CD32 - Sheila Jordan - Portrait Of Sheila (1962)

01. Sheila Jordan - Falling In Love With Love [02:30]
02. Sheila Jordan - If You Could See Me Now [04:32]
03. Sheila Jordan - Am I Blue? [04:12]
04. Sheila Jordan - Dat Dere [02:43]
05. Sheila Jordan - When The World Was Young [04:43]
06. Sheila Jordan - Let's Face The Music And Dance [01:14]
07. Sheila Jordan - Laugh! Clown! Laugh! [03:10]
08. Sheila Jordan - Who Can I Turn To Now [03:23]
09. Sheila Jordan - Baltimore Oriole [02:34]
10. Sheila Jordan - I'm A Fool To Want You [04:56]
11. Sheila Jordan - Hum Drum Blues [02:14]
12. Sheila Jordan - Willow Weep For Me [03:30]
Продолжительность: 00:39:35
Dynamic Range Meter
foobar2000 1.3.10 / Замер динамического диапазона (DR) 1.1.1Дата отчёта: 2016-06-19 15:02:41
--------------------------------------------------------------------------------Анализ: Sheila Jordan / Portrait Of Sheila--------------------------------------------------------------------------------
DR Пики RMS Продолжительность трека--------------------------------------------------------------------------------DR12 -1.16 дБ -17.03 дБ 2:30 01-Falling In Love With LoveDR11 -4.84 дБ -20.12 дБ 4:32 02-If You Could See Me NowDR11 -4.13 дБ -20.32 дБ 4:12 03-Am I Blue?DR11 -3.41 дБ -18.77 дБ 2:42 04-Dat DereDR13 -7.15 дБ -23.86 дБ 4:42 05-When The World Was YoungDR12 -0.76 дБ -16.93 дБ 1:14 06-Let's Face The Music And DanceDR11 -0.91 дБ -17.81 дБ 3:10 07-Laugh! Clown! Laugh!DR12 -6.93 дБ -23.40 дБ 3:22 08-Who Can I Turn To NowDR13 -3.03 дБ -20.71 дБ 2:33 09-Baltimore OrioleDR11 -7.18 дБ -22.61 дБ 4:55 10-I'm A Fool To Want YouDR11 -1.85 дБ -17.07 дБ 2:13 11-Hum Drum BluesDR11 -5.09 дБ -20.00 дБ 3:29 12-Willow Weep For Me--------------------------------------------------------------------------------
Количество треков: 12Реальные значения DR: DR12
Частота: 48000 ГцКаналов: 2Разрядность: 24Битрейт: 1570 кбит/сКодек: ALAC================================================================================

Скриншот спектра частот

CD33 - Freddie Hubbard - Hub-Tones (1962)

1. Freddie Hubbard - You're My Everything [06:36]
2. Freddie Hubbard - Prophet Jennings [05:29]
3. Freddie Hubbard - Hub-Tones [08:23]
4. Freddie Hubbard - Lament For Booker [09:41]
5. Freddie Hubbard - For Spee's Sake [08:37]
Продолжительность: 00:38:44
Dynamic Range Meter
foobar2000 1.3.10 / Замер динамического диапазона (DR) 1.1.1Дата отчёта: 2016-06-19 15:08:40
--------------------------------------------------------------------------------Анализ: Freddie Hubbard / Hub-Tones--------------------------------------------------------------------------------
DR Пики RMS Продолжительность трека--------------------------------------------------------------------------------DR13 -0.43 дБ -18.94 дБ 6:35 01-You're My EverythingDR11 -2.17 дБ -18.89 дБ 5:29 02-Prophet JenningsDR13 0.00 дБ -17.01 дБ 8:23 03-Hub-TonesDR13 -2.79 дБ -22.49 дБ 9:40 04-Lament For BookerDR13 -0.66 дБ -17.22 дБ 8:37 05-For Spee's Sake--------------------------------------------------------------------------------
Количество треков: 5Реальные значения DR: DR13
Частота: 48000 ГцКаналов: 2Разрядность: 24Битрейт: 1847 кбит/сКодек: ALAC================================================================================

Скриншот спектра частот

CD34 - Kenny Burrell - Midnight Blue (1963)

1. Kenny Burrell - Chitlins Con Carne [05:27]
2. Kenny Burrell - Mule [07:00]
3. Kenny Burrell - Soul Lament [02:46]
4. Kenny Burrell - Midnight Blue [04:03]
5. Kenny Burrell - Wavy Gravy [05:50]
6. Kenny Burrell - Gee Baby, Ain't I Good To You [04:27]
7. Kenny Burrell - Saturday Night Blues [06:16]
Продолжительность: 00:35:46
Dynamic Range Meter
foobar2000 1.3.10 / Замер динамического диапазона (DR) 1.1.1Дата отчёта: 2016-06-19 15:11:56
--------------------------------------------------------------------------------Анализ: Kenny Burrell / Midnight Blue--------------------------------------------------------------------------------
DR Пики RMS Продолжительность трека--------------------------------------------------------------------------------DR11 -0.49 дБ -16.55 дБ 5:27 01-Chitlins Con CarneDR12 -0.23 дБ -18.01 дБ 7:00 02-MuleDR13 -3.77 дБ -22.10 дБ 2:45 03-Soul LamentDR12 -0.25 дБ -17.40 дБ 4:03 04-Midnight BlueDR12 -0.16 дБ -17.32 дБ 5:49 05-Wavy GravyDR14 -1.73 дБ -19.51 дБ 4:27 06-Gee Baby, Ain't I Good To YouDR12 -0.11 дБ -16.97 дБ 6:15 07-Saturday Night Blues--------------------------------------------------------------------------------
Количество треков: 7Реальные значения DR: DR12
Частота: 48000 ГцКаналов: 2Разрядность: 24Битрейт: 1689 кбит/сКодек: ALAC================================================================================

Скриншот спектра частот

CD35 - Donald Byrd - A New Perspective (1963)

1. Donald Byrd - Elijah [09:20]
2. Donald Byrd - Beast Of Burden [10:06]
3. Donald Byrd - Cristo Redentor [05:42]
4. Donald Byrd - Black Disciple [08:12]
5. Donald Byrd - Chant [07:32]
Продолжительность: 00:40:51
Dynamic Range Meter
foobar2000 1.3.10 / Замер динамического диапазона (DR) 1.1.1Дата отчёта: 2016-06-19 15:13:58
--------------------------------------------------------------------------------Анализ: Donald Byrd / A New Perspective--------------------------------------------------------------------------------
DR Пики RMS Продолжительность трека--------------------------------------------------------------------------------DR11 -1.50 дБ -16.14 дБ 9:20 01-ElijahDR12 -3.78 дБ -19.71 дБ 10:06 02-Beast Of BurdenDR11 -0.12 дБ -16.60 дБ 5:41 03-Cristo RedentorDR11 -1.51 дБ -16.95 дБ 8:12 04-Black DiscipleDR11 -1.23 дБ -16.77 дБ 7:32 05-Chant--------------------------------------------------------------------------------
Количество треков: 5Реальные значения DR: DR11
Частота: 48000 ГцКаналов: 2Разрядность: 24Битрейт: 1722 кбит/сКодек: ALAC================================================================================

Скриншот спектра частот

CD36 - Hank Mobley - The Turnaround! (1965)

1. Donald Byrd - Elijah [09:20]
2. Donald Byrd - Beast Of Burden [10:06]
3. Donald Byrd - Cristo Redentor [05:42]
4. Donald Byrd - Black Disciple [08:12]
5. Donald Byrd - Chant [07:32]
Продолжительность: 00:40:51
Dynamic Range Meter
foobar2000 1.3.10 / Замер динамического диапазона (DR) 1.1.1Дата отчёта: 2016-06-19 15:17:53
--------------------------------------------------------------------------------Анализ: Hank Mobley / The Turnaround!--------------------------------------------------------------------------------
DR Пики RMS Продолжительность трека--------------------------------------------------------------------------------DR13 -0.85 дБ -18.06 дБ 8:16 01-The TurnaroundDR12 -0.66 дБ -17.16 дБ 6:46 02-East Of The VillageDR13 -0.97 дБ -20.17 дБ 5:09 03-The Good LifeDR13 -0.13 дБ -17.00 дБ 7:01 04-Straight AheadDR13 -1.02 дБ -19.62 дБ 6:52 05-My SinDR14 0.00 дБ -17.68 дБ 6:27 06-Pat 'N Chat--------------------------------------------------------------------------------
Количество треков: 6Реальные значения DR: DR13
Частота: 48000 ГцКаналов: 2Разрядность: 24Битрейт: 1730 кбит/сКодек: ALAC================================================================================

Скриншот спектра частот

CD37 - Jackie McLean - One Step Beyond (1963)

01. Saturday And Sunday
02. Frankenstein
03. Blue Rondo
04. Ghost Town
Продолжительность: 00:37:21
Dynamic Range Meter
foobar2000 1.3.10 / Замер динамического диапазона (DR) 1.1.1Дата отчёта: 2016-06-19 15:21:35
--------------------------------------------------------------------------------Анализ: Jackie McLean / One Step Beyond--------------------------------------------------------------------------------
DR Пики RMS Продолжительность трека--------------------------------------------------------------------------------DR12 -0.36 дБ -16.60 дБ 10:27 01-Saturday And SundayDR12 -0.60 дБ -16.73 дБ 7:29 02-FrankensteinDR12 -0.16 дБ -16.84 дБ 4:51 03-Blue RondoDR11 -0.98 дБ -17.71 дБ 14:34 04-Ghost Town--------------------------------------------------------------------------------
Количество треков: 4Реальные значения DR: DR12
Частота: 48000 ГцКаналов: 2Разрядность: 24Битрейт: 1623 кбит/сКодек: ALAC================================================================================

Скриншот спектра частот

Скриншот(ы) тегов iTunes

[Цитировать]



Показать сообщения:    

Текущее время: 11-Дек 05:23

Часовой пояс: UTC + 3


Вы не можете начинать темы
Вы не можете отвечать на сообщения
Вы не можете редактировать свои сообщения
Вы не можете удалять свои сообщения
Вы не можете голосовать в опросах
Вы не можете прикреплять файлы к сообщениям
Вы не можете скачивать файлы

!ВНИМАНИЕ!
Сайт не предоставляет электронные версии произведений, а занимается лишь коллекционированием и каталогизацией ссылок, присылаемых и публикуемых на форуме нашими читателями. Если вы являетесь правообладателем какого-либо представленного материала и не желаете, чтобы ссылка на него находилась в нашем каталоге, свяжитесь с нами, и мы незамедлительно удалим ее. Файлы для обмена на трекере предоставлены пользователями сайта, и администрация не несет ответственности за их содержание. Просьба не заливать файлы, защищенные авторскими правами, а также файлы нелегального содержания!