[ Сегодня идет свободное скачивание без начисления Download ]


Статистика раздачи
Нет
 
   
 
Top  
 
 
За гранью / Грань / Fringe / Сезон: 4-5 Год выпуска: 2011-2012
Страна: США, Канада
Жанр: фантастика, триллер, драма, детектив
Продолжительность: ~44 мин
Перевод 1: Профессиональный (многоголосый, закадровый) LostFilm
Перевод 2: Профессиональный (дублированный) ТВ3
Русские субтитры: да 4 сезон
Субтитры: Eng, rus
Режиссёр: Джо Чаппелль, Брэд Андерсон, Фред Туа
В ролях: Анна Торв (Olivia Dunham), Джошуа Джексон (Peter Bishop), Джон Ноубл (Dr. Walter Bishop), Джесика Николь (Astrid Farnsworth), Лэнс Реддик (Phillip Broyles), Блэр Браун (Nina Sharp), Майкл Серверис (The Observer), Кирк Асеведо (Charlie Francis), Сет Гейбл (Lincoln Lee), Леонард Нимой (Dr. William Bell), Райан МакДональд (Brandon Fayette), Марк Вэлли (John Scott)
Описание: Оливия Данэм - молодой агент ФБР - вынуждена работать со штатом ученых, чтобы расследовать необъяснимые феномены. Среди работников этого секретного отдела Национальной Безопасности: доктор Уолтер Бишоп - что-то среднее между Эйнштейном и Франкенштейном, его сын с IQ около 200, так и не закончивший школу, уклоняющийся от уплаты карточных долгов, и Нина Шарп, проработавшая на тайную организацию 16 лет. Особый агент НБ Филип Бройлс возглавляет отдел, призванный расследовать паранормальные явления.
Сэмпл: http://multi-up.com/1110167
Качество: BDRip-AVC
Формат: MKV
Видео кодек: H.264
Аудио кодек: AC3
Видео: h264 720x408 (16:9); ~1405 Kbps; 23.976 fps; 0.2 bpp
Аудио 1: Russian LostFilm Dolby AC3, 48.0 KHz, 6 ch 448 kbps
Аудио 2: Russian ТВ3 Dolby AC3, 48.0 KHz, 2 ch 192 kbps
Аудио 3: English АС3 48.0 KHz, 6 ch 448 kbps)

MI

сезон 4
General
Unique ID : 173382136889507412012606948546743005167 (0x82702F574AFFA33195E474A872BE6FEF)
Complete name : H:\трекер\FRINGE.BDRip\S4\Fringe.s4e01.Neither.Here.Nor.There.mkv
Format : Matroska
Format version : Version 4 / Version 2
File size : 776 MiB
Duration : 43mn 29s
Overall bit rate : 2 495 Kbps
Movie name : Fringe.s4e01.Neither.Here.Nor.There (BDRip-AVC) -B@ZILI0-
Encoded date : UTC 2016-07-12 16:07:13
Writing application : mkvmerge v9.2.0 ('Photograph') 64bit
Writing library : libebml v1.3.3 + libmatroska v1.4.4
Cover : Yes
Attachments : cover.png
Video
ID : 1
Format : AVC
Format/Info : Advanced Video Codec
Format profile : [email protected]
Format settings, CABAC : Yes
Format settings, ReFrames : 9 frames
Codec ID : V_MPEG4/ISO/AVC
Duration : 43mn 28s
Bit rate : 1 405 Kbps
Width : 720 pixels
Height : 408 pixels
Display aspect ratio : 16:9
Frame rate mode : Constant
Frame rate : 23.976 (24000/1001) fps
Color space : YUV
Chroma subsampling : 4:2:0
Bit depth : 8 bits
Scan type : Progressive
Bits/(Pixel*Frame) : 0.199
Stream size : 436 MiB (56%)
Title : Fringe.s4e01.Neither.Here.Nor.There (BDRip-AVC) -B@ZILI0-
Writing library : x264 core 148 r2638 7599210
Encoding settings : cabac=1 / ref=9 / deblock=1:-3:-3 / analyse=0x3:0x133 / me=umh / subme=11 / psy=1 / psy_rd=1.05:0.05 / mixed_ref=1 / me_range=32 / chroma_me=1 / trellis=2 / 8x8dct=1 / cqm=0 / deadzone=21,11 / fast_pskip=0 / chroma_qp_offset=-3 / threads=6 / lookahead_threads=1 / sliced_threads=0 / nr=0 / decimate=0 / interlaced=0 / bluray_compat=0 / constrained_intra=0 / bframes=8 / b_pyramid=2 / b_adapt=2 / b_bias=0 / direct=3 / weightb=1 / open_gop=0 / weightp=2 / keyint=240 / keyint_min=23 / scenecut=40 / intra_refresh=0 / rc=2pass / mbtree=0 / bitrate=1405 / ratetol=1.0 / qcomp=0.65 / qpmin=0 / qpmax=69 / qpstep=4 / cplxblur=20.0 / qblur=0.5 / ip_ratio=1.40 / pb_ratio=1.30 / aq=1:1.00
Language : English
Default : Yes
Forced : No
Audio #1
ID : 2
Format : AC-3
Format/Info : Audio Coding 3
Mode extension : CM (complete main)
Format settings, Endianness : Big
Codec ID : A_AC3
Duration : 43mn 29s
Bit rate mode : Constant
Bit rate : 448 Kbps
Channel(s) : 6 channels
Channel positions : Front: L C R, Side: L R, LFE
Sampling rate : 48.0 KHz
Frame rate : 31.250 fps (1536 spf)
Compression mode : Lossy
Stream size : 139 MiB (18%)
Title : LostFilm AC3 5.1 448 Kbps
Language : Russian
Default : Yes
Forced : No
Audio #2
ID : 3
Format : AC-3
Format/Info : Audio Coding 3
Mode extension : CM (complete main)
Format settings, Endianness : Big
Codec ID : A_AC3
Duration : 43mn 28s
Bit rate mode : Constant
Bit rate : 192 Kbps
Channel(s) : 2 channels
Channel positions : Front: L R
Sampling rate : 48.0 KHz
Frame rate : 31.250 fps (1536 spf)
Compression mode : Lossy
Stream size : 59.7 MiB (8%)
Title : TV3 AC3 2.0 192 Kbps
Language : Russian
Default : No
Forced : No
Audio #3
ID : 4
Format : AC-3
Format/Info : Audio Coding 3
Mode extension : CM (complete main)
Format settings, Endianness : Big
Codec ID : A_AC3
Duration : 43mn 29s
Bit rate mode : Constant
Bit rate : 448 Kbps
Channel(s) : 6 channels
Channel positions : Front: L C R, Side: L R, LFE
Sampling rate : 48.0 KHz
Frame rate : 31.250 fps (1536 spf)
Compression mode : Lossy
Stream size : 139 MiB (18%)
Title : Original AC3 5.1 448 Kbps
Language : English
Default : No
Forced : No
Text #1
ID : 5
Format : UTF-8
Codec ID : S_TEXT/UTF8
Codec ID/Info : UTF-8 Plain Text
Duration : 42mn 32s
Bit rate : 98 bps
Count of elements : 626
Stream size : 30.5 KiB (0%)
Language : Russian
Default : No
Forced : No
Text #2
ID : 6
Format : UTF-8
Codec ID : S_TEXT/UTF8
Codec ID/Info : UTF-8 Plain Text
Duration : 42mn 32s
Bit rate : 65 bps
Count of elements : 692
Stream size : 20.4 KiB (0%)
Language : English
Default : No
Forced : No
Menu
00:00:00.000 : en:00:00:00.000
00:00:52.511 : en:00:00:52.511
00:03:34.339 : en:00:03:34.339
00:06:36.855 : en:00:06:36.855
00:11:44.078 : en:00:11:44.078
00:19:02.600 : en:00:19:02.600
00:27:33.777 : en:00:27:33.777
00:33:31.551 : en:00:33:31.551
00:42:48.983 : en:00:42:48.983

сезон 5

General
Unique ID : 220697333626462317344436070209038671911 (0xA608C2A626A5032783555E702B616027)
Complete name : H:\трекер\FRINGE.BDRip\S5\Fringe.s5e01.Transilience.Thought.Unifier.Model.11.mkv
Format : Matroska
Format version : Version 4 / Version 2
File size : 777 MiB
Duration : 43mn 33s
Overall bit rate : 2 495 Kbps
Movie name : Fringe.s5e01.Transilience.Thought.Unifier.Model.11 (BDRip-AVC) -B@ZILI0-
Encoded date : UTC 2016-07-16 19:11:05
Writing application : mkvmerge v9.3.1 ('Mask Machine') 64bit
Writing library : libebml v1.3.4 + libmatroska v1.4.5
Cover : Yes
Attachments : cover.jpg
Video
ID : 1
Format : AVC
Format/Info : Advanced Video Codec
Format profile : [email protected]
Format settings, CABAC : Yes
Format settings, ReFrames : 9 frames
Codec ID : V_MPEG4/ISO/AVC
Duration : 43mn 32s
Bit rate : 1 405 Kbps
Width : 720 pixels
Height : 408 pixels
Display aspect ratio : 16:9
Frame rate mode : Constant
Frame rate : 23.976 (24000/1001) fps
Color space : YUV
Chroma subsampling : 4:2:0
Bit depth : 8 bits
Scan type : Progressive
Bits/(Pixel*Frame) : 0.199
Stream size : 438 MiB (56%)
Title : Fringe.s5e01.Transilience.Thought.Unifier.Model.11 (BDRip-AVC) -B@ZILI0-
Writing library : x264 core 148 r2597 e86f3a1
Encoding settings : cabac=1 / ref=9 / deblock=1:-3:-3 / analyse=0x3:0x133 / me=umh / subme=11 / psy=1 / psy_rd=1.05:0.05 / mixed_ref=1 / me_range=32 / chroma_me=1 / trellis=2 / 8x8dct=1 / cqm=0 / deadzone=21,11 / fast_pskip=0 / chroma_qp_offset=-3 / threads=6 / lookahead_threads=1 / sliced_threads=0 / nr=0 / decimate=0 / interlaced=0 / bluray_compat=0 / constrained_intra=0 / bframes=8 / b_pyramid=2 / b_adapt=2 / b_bias=0 / direct=3 / weightb=1 / open_gop=0 / weightp=2 / keyint=240 / keyint_min=23 / scenecut=40 / intra_refresh=0 / rc=2pass / mbtree=0 / bitrate=1405 / ratetol=1.0 / qcomp=0.65 / qpmin=0 / qpmax=69 / qpstep=4 / cplxblur=20.0 / qblur=0.5 / ip_ratio=1.40 / pb_ratio=1.30 / aq=1:1.00
Language : English
Default : Yes
Forced : No
Audio #1
ID : 2
Format : AC-3
Format/Info : Audio Coding 3
Mode extension : CM (complete main)
Format settings, Endianness : Big
Codec ID : A_AC3
Duration : 43mn 33s
Bit rate mode : Constant
Bit rate : 448 Kbps
Channel(s) : 6 channels
Channel positions : Front: L C R, Side: L R, LFE
Sampling rate : 48.0 KHz
Frame rate : 31.250 fps (1536 spf)
Compression mode : Lossy
Stream size : 140 MiB (18%)
Title : LostFilm AC3 5.1 448 Kbps
Language : Russian
Default : Yes
Forced : No
Audio #2
ID : 3
Format : AC-3
Format/Info : Audio Coding 3
Mode extension : CM (complete main)
Format settings, Endianness : Big
Codec ID : A_AC3
Duration : 43mn 32s
Bit rate mode : Constant
Bit rate : 192 Kbps
Channel(s) : 2 channels
Channel positions : Front: L R
Sampling rate : 48.0 KHz
Frame rate : 31.250 fps (1536 spf)
Compression mode : Lossy
Stream size : 59.8 MiB (8%)
Title : TV3 AC3 2.0 192 Kbps
Language : Russian
Default : No
Forced : No
Audio #3
ID : 4
Format : AC-3
Format/Info : Audio Coding 3
Mode extension : CM (complete main)
Format settings, Endianness : Big
Codec ID : A_AC3
Duration : 43mn 33s
Bit rate mode : Constant
Bit rate : 448 Kbps
Channel(s) : 6 channels
Channel positions : Front: L C R, Side: L R, LFE
Sampling rate : 48.0 KHz
Frame rate : 31.250 fps (1536 spf)
Compression mode : Lossy
Stream size : 140 MiB (18%)
Title : Original AC3 5.1 448 Kbps
Language : English
Default : No
Forced : No
Text #1
ID : 5
Format : UTF-8
Codec ID : S_TEXT/UTF8
Codec ID/Info : UTF-8 Plain Text
Duration : 42mn 46s
Bit rate : 47 bps
Count of elements : 446
Stream size : 15.0 KiB (0%)
Language : English
Default : No
Forced : No
Text #2
ID : 6
Format : UTF-8
Codec ID : S_TEXT/UTF8
Codec ID/Info : UTF-8 Plain Text
Duration : 43mn 28s
Bit rate : 50 bps
Count of elements : 489
Stream size : 16.2 KiB (0%)
Title : SDH
Language : English
Default : No
Forced : No
Menu
00:00:00.000 : en:00:00:00.000
00:00:48.465 : en:00:00:48.465
00:08:21.334 : en:00:08:21.334
00:16:20.104 : en:00:16:20.104
00:27:34.069 : en:00:27:34.069
00:32:29.781 : en:00:32:29.781
00:38:07.494 : en:00:38:07.494
00:42:53.571 : en:00:42:53.571

Скриншоты

17.07.16 добавлена дорожка тв3

[Цитировать]



Показать сообщения:    

Текущее время: 06-Дек 03:56

Часовой пояс: UTC + 3


Вы не можете начинать темы
Вы не можете отвечать на сообщения
Вы не можете редактировать свои сообщения
Вы не можете удалять свои сообщения
Вы не можете голосовать в опросах
Вы не можете прикреплять файлы к сообщениям
Вы не можете скачивать файлы

!ВНИМАНИЕ!
Сайт не предоставляет электронные версии произведений, а занимается лишь коллекционированием и каталогизацией ссылок, присылаемых и публикуемых на форуме нашими читателями. Если вы являетесь правообладателем какого-либо представленного материала и не желаете, чтобы ссылка на него находилась в нашем каталоге, свяжитесь с нами, и мы незамедлительно удалим ее. Файлы для обмена на трекере предоставлены пользователями сайта, и администрация не несет ответственности за их содержание. Просьба не заливать файлы, защищенные авторскими правами, а также файлы нелегального содержания!