[ Сегодня идет свободное скачивание без начисления Download ]


Статистика раздачи
Нет
 
   
 
Top  
 
 

[sh]Дублёр [/sh]
[sh]»[/sh] Год выпуска: 2012
[sh]»[/sh] Страна: Россия
[sh]»[/sh] Производство: Enjoy Movies
[sh]»[/sh] Жанр: комедия
[sh]»[/sh] Режиссер: Евгений Абызов
[sh]»[/sh] В ролях: Александр Ревва, Кристина Асмус, Дмитрий Хрусталев, Людмила Артемьева, Татьяна Орлова, Ксения Буравская, Варвара Малкова, Александра Кимаева, Евгений Шиманович, Алексей Рязанцев
[sh]»[/sh] Перевод: Не требуется
[sh]»[/sh] Субтитры: Нет
[sh]»[/sh] Описание: Главный герой нашей истории - успешный актер, звезда шоу-бизнеса Игорь Успенский. Его жизнь - сплошные съемки, концерты, презентации, корпоративы, интервью и светские тусовки. Он вынужден «крутиться» день и ночь, у него нет выходных и праздников. А его очаровательная жена и прекрасная дочка видят его в лучшем случае поздно ночью, когда он приезжает домой, чтобы поспать хотя бы пару часов. Но все труды не проходят даром. Игорь очень популярен и однажды его кандидатуру выдвигают на премию «Человек года» - теперь ему нужно еще больше времени, чтобы победить главного конкурента - певца Михаила Стасова, главные хиты которого свели с ума всех женщин России... [sh]»[/sh] Качество: HDRip
[sh]» Продолжительность: 01:23:34
[sh]»[/sh] Формат: AVI
[sh]» Видео кодек: XviD
[sh]»[/sh] Аудио кодек: МР3
[sh]»[/sh] Видео: 640x272 (2.25:1), 24.000 fps, XviD, ~1024 kbps avg, 0.245 bit/pixel
[sh]»[/sh] Аудио: 48 kHz, МР3, 2 ch, 128 kbps - |Оригинал|
Премьера (мир): 10 января 2013
Премьера (РФ): 10 января 2013, «Каропрокат»

Media Info

[sh]
General
Complete name : D:\Dubler.2013.O.XviD.HDRip..avi
Format : AVI
Format/Info : Audio Video Interleave
File size : 696 MiB
Duration : 1h 23mn
Overall bit rate : 1 165 Kbps
Movie name : Dubler.2013.O.XviD.BDRip.avi
Director : Am-vR
Genre : Comedy
Writing application : Lavf54.25.104
Original source form/Name : Movie
Video
ID : 0
Format : MPEG-4 Visual
Format profile : Simple@L3
Format settings, BVOP : No
Format settings, QPel : No
Format settings, GMC : No warppoints
Format settings, Matrix : Default (H.263)
Codec ID : XVID
Codec ID/Hint : XviD
Duration : 1h 23mn
Bit rate : 1 024 Kbps
Width : 640 pixels
Height : 272 pixels
Display aspect ratio : 2.25:1
Frame rate : 24.000 fps
Color space : YUV
Chroma subsampling : 4:2:0
Bit depth : 8 bits
Scan type : Progressive
Compression mode : Lossy
Bits/(Pixel*Frame) : 0.245
Stream size : 612 MiB (88%)
Writing library : XviD 64
Audio
ID : 1
Format : MPEG Audio
Format version : Version 1
Format profile : Layer 3
Codec ID : 55
Codec ID/Hint : MP3
Duration : 1h 23mn
Bit rate mode : Constant
Bit rate : 128 Kbps
Channel(s) : 2 channels
Sampling rate : 48.0 KHz
Compression mode : Lossy
Stream size : 76.5 MiB (11%)
Alignment : Aligned on interleaves
Interleave, duration : 24 ms (0.58 video frame)
Interleave, preload duration : 24 ms
[/sh]
[th]http://torrentsclub.org/pictures/8272aa4581dd94a3c2...a523dda.jpg[/th]
[th]http://torrentsclub.org/pictures/99ce67152beb8753fb...6d524c7.jpg[/th]
[th]http://torrentsclub.org/pictures/f9eeb1bdee0439395e...cd61bd1.jpg[/th]

[Цитировать]

Топик был перенесен из форума Новинки кинопроката в форум Комедия
Henkok



Показать сообщения:    

Текущее время: 08-Дек 17:12

Часовой пояс: UTC + 3


Вы не можете начинать темы
Вы не можете отвечать на сообщения
Вы не можете редактировать свои сообщения
Вы не можете удалять свои сообщения
Вы не можете голосовать в опросах
Вы не можете прикреплять файлы к сообщениям
Вы не можете скачивать файлы

!ВНИМАНИЕ!
Сайт не предоставляет электронные версии произведений, а занимается лишь коллекционированием и каталогизацией ссылок, присылаемых и публикуемых на форуме нашими читателями. Если вы являетесь правообладателем какого-либо представленного материала и не желаете, чтобы ссылка на него находилась в нашем каталоге, свяжитесь с нами, и мы незамедлительно удалим ее. Файлы для обмена на трекере предоставлены пользователями сайта, и администрация не несет ответственности за их содержание. Просьба не заливать файлы, защищенные авторскими правами, а также файлы нелегального содержания!