[ Today is free to download without increasing Download ]

DL-List and Torrent activity
Complete: [ 5 ]
Angry Birds в кино / The Angry Birds Movie
Страна: Финляндия США
Производство: Columbia Pictures, Village Roadshow Pictures, LStar Capital, Sony Pictures Animation
Год выпуска: 2016
Жанр: мультфильм, боевик, комедия, семейный
Продолжительность: 01:35:53
Режиссеры: Клэй Кэйтис, Фергал Рейли
Автор сценария: Джон Витти
В ролях: Питер Динклэйдж, Джейсон Судейкис, Кейт МакКиннон, Кигэн-Майкл Ки, Титус Берджесс, Шон Пенн, Билл Хейдер, Майя Рудольф
Описание: Фильм расскажет о том, как началось знаменитое противостояние птичек и свинок, персонажей популярной компьютерной игры, а также раскроет некоторые секреты любимых героев...

Перевод: Профессиональный (полное дублирование) | чистый звук
Субтитры: нет-Качество: WEBRip
Формат: АVI
Видео кодек: XviD
Аудио кодек: АС3
Видео: 720x400 (16:9), 29.970 fps, XviD ~1 200 kbps avg
Аудио: 48.0 kHz, AC3 Dolby Digital, 2/0 (L,R) ch, ~192 kbps
Дата премьеры (мир): 5 мая 2016
Дата премьеры (РФ): 12 мая 2016, «WDSSPR»

Media Info

Format : AVI
Format/Info : Audio Video Interleave
Overall bit rate : 1 406 Kbps
Writing application : VirtualDubMod | (build 2550/release)
Writing library : VirtualDubMod build 2550/release
ID : 0
Format : MPEG-4 Visual
Format profile : Advanced Simple@L5
Format settings, BVOP : 2
Format settings, QPel : No
Format settings, GMC : No warppoints
Format settings, Matrix : Custom
Codec ID : XVID
Codec ID/Hint : XviD
Bit rate : 1 200 Kbps
Width : 720 pixels
Height : 400 pixels
Display aspect ratio : 16:9
Frame rate : 29.970 fps
Color space : YUV
Chroma subsampling : 4:2:0
Bit depth : 8 bits
Scan type : Progressive
Compression mode : Lossy
Bits/(Pixel*Frame) : 0.139
Stream size : 7.20 MiB (85%)
Writing library : XviD 1.2.1 (UTC 2008-12-04)
ID : 1
Format : AC-3
Format/Info : Audio Coding 3
Mode extension : CM (complete main)
Format settings, Endianness : Big
Codec ID : 2000
Bit rate mode : Constant
Bit rate : 192 Kbps
Channel(s) : 2 channels
Channel positions : Front: L R
Sampling rate : 48.0 KHz
Compression mode : Lossy
Stream size : 1.15 MiB (14%)
Alignment : Split accross interleaves
Interleave, duration : 34 ms (1.01 video frame)
Interleave, preload duration : 500 ms



Display posts:    

Current time is: 27-Oct 21:41

All times are UTC + 3

You cannot post new topics in this forum
You cannot reply to topics in this forum
You cannot edit your posts in this forum
You cannot delete your posts in this forum
You cannot vote in polls in this forum
You cannot attach files in this forum
You cannot download files in this forum

The site does not give electronic versions of products, and is engaged only in a collecting and cataloguing of the references sent and published at a forum by our readers. If you are the legal owner of any submitted material and do not wish that the reference to it was in our catalogue, contact us and we shall immediately remove her. Files for an exchange on tracker are given by users of a site, and the administration does not bear the responsibility for their maintenance. The request to not fill in the files protected by copyrights, and also files of the illegal maintenance!