[ Сегодня идет свободное скачивание без начисления Download ]


Статистика раздачи
Нет
 
   
 
Top  
 
 
Любовь на острове / Love Wrecked (2005) HDTV 1080i Информация о фильме
Название: Любовь на острове
Оригинальное название: Love Wrecked
Год выхода: 2005
Жанр: Комедия, мелодрама, приключения
Режиссер: Рэндал Клайзер
В ролях: Аманда Байнс, Крис Кармак, Джонатан Беннетт, Джейми-Линн Сиглер, Сьюзэн Дюрден, Фред Уиллард, Джеки Лонг, Джои Керн, Лэнс Басс, Кэти Гриффин, Альфонсо Рибейро, Коннор Матеус, Сюзанн Кент, Калеб Муди, Лу Эриксон, Келли Вагнер, Сабрина Курзман, Тим Фицджералд, Таня Имберти
О фильме:
Восемнадцатилетняя Дженни приходит в полный восторг, узнав, что ее любимая рок-звезда — Джейсон Мастерс, приехал отдыхать на тропический курорт, где она работает. Волею несчастного случая они вдвоем попадают на «необитаемый» остров, от которого, на самом деле, рукой подать до большой земли. Но Дженни сохраняет это в тайне. Однако, идиллия на острове длится недолго: «коварное» море выбрасывает новых претенденток на ее кумира!…

Страна: США
Студия: Bacon & Eggs, Media 8 Entertainment, Santo Domingo Film & Music Video
Продолжительность: 01:22:50
Перевод: Профессиональный многоголосый
Файл
Кодек: h.264
Качество: HDTV 1080i
Видео: MPEG-4 AVC, ~ 9701 Кбит/с, 1920x1080, 25.000 кадр/с
Звук:
Русский (AC3, 6 ch, 448 Кбит/с) / Профессиональный многоголосый
Русский (MP2, 2 ch, 192 Кбит/с) / Профессиональный многоголосый
Субтитры: Нет
Семпл

О релизе

Автор релиза - Silverok, первоисточник - Кинопоказ HD2

MI

Общее
Идентификатор : 1 (0x1)
Полное имя : D:uTorrentLjubov.na.ostrove.2005.HDTV.1080i.MediaClub.ts
Формат : MPEG-TS
Размер файла : 6,30 Гбайт
Продолжительность : 1 ч. 22 м.
Режим общего битрейта : Переменный
Общий поток : 10,9 Мбит/сек
Видео
Идентификатор : 3031 (0xBD7)
Идентификатор меню : 1234 (0x4D2)
Формат : AVC
Формат/Информация : Advanced Video Codec
Профиль формата : Main@L4
Параметр CABAC формата : Да
Параметр ReFrames формата : 4 кадра
Параметр GOP формата : M=1, N=32
Идентификатор кодека : 27
Продолжительность : 1 ч. 22 м.
Битрейт : 9701 Кбит/сек
Ширина : 1920 пикселей
Высота : 1080 пикселей
Соотношение сторон : 16:9
Частота кадров : 25,000 кадров/сек
Цветовое пространство : YUV
Субдискретизация насыщенности : 4:2:0
Битовая глубина : 8 бит
Тип развёртки : Чересстрочная
Метод сохранения типа развёртки : Раздельные поля
Порядок развёртки : Верхнее поле первое
Бит/(Пиксели*Кадры) : 0.187
Размер потока : 5,61 Гбайт (89%)
Цветовой диапазон : Limited
Основные цвета : BT.709
Характеристики трансфера : BT.709
Коэффициенты матрицы : BT.709
Аудио #1
Идентификатор : 3032 (0xBD8)
Идентификатор меню : 1234 (0x4D2)
Формат : AC-3
Формат/Информация : Audio Coding 3
Расширение режима : CM (complete main)
Параметр Endianness формата : Big
Идентификатор кодека : 6
Продолжительность : 1 ч. 22 м.
Вид битрейта : Постоянный
Битрейт : 448 Кбит/сек
Каналы : 6 каналов
Расположение каналов : Front: L C R, Side: L R, LFE
Частота : 48,0 КГц
Частота кадров : 31,250 кадров/сек (1536 spf)
Метод сжатия : С потерями
Размер потока : 265 Мбайт (4%)
Язык : Russian
Аудио #2
Идентификатор : 3033 (0xBD9)
Идентификатор меню : 1234 (0x4D2)
Формат : MPEG Audio
Версия формата : Version 1
Профиль формата : Layer 2
Идентификатор кодека : 3
Продолжительность : 1 ч. 22 м.
Вид битрейта : Постоянный
Битрейт : 192 Кбит/сек
Каналы : 2 канала
Частота : 48,0 КГц
Метод сжатия : С потерями
Размер потока : 114 Мбайт (2%)
Язык : Russian

Скриншоты

[Цитировать]



Показать сообщения:    

Текущее время: 26-Апр 12:04

Часовой пояс: UTC + 6


Вы не можете начинать темы
Вы не можете отвечать на сообщения
Вы не можете редактировать свои сообщения
Вы не можете удалять свои сообщения
Вы не можете голосовать в опросах
Вы не можете прикреплять файлы к сообщениям
Вы не можете скачивать файлы

!ВНИМАНИЕ!
Сайт не предоставляет электронные версии произведений, а занимается лишь коллекционированием и каталогизацией ссылок, присылаемых и публикуемых на форуме нашими читателями. Если вы являетесь правообладателем какого-либо представленного материала и не желаете, чтобы ссылка на него находилась в нашем каталоге, свяжитесь с нами, и мы незамедлительно удалим ее. Файлы для обмена на трекере предоставлены пользователями сайта, и администрация не несет ответственности за их содержание. Просьба не заливать файлы, защищенные авторскими правами, а также файлы нелегального содержания!