[ Сегодня идет свободное скачивание без начисления Download ]


Статистика раздачи
Скачал: [ 13 ]
 
   
 
Top  
 
 
Михаил Русаков | Коллекция VIP-видеоуроков (2015) PCRec - Автор (режиссер): Михаил Русаков
Жанр: Программирование, PHP, MySQL
Описание:
Дорогие друзья, представляю Вашему вниманию свой сборник видеоуроков.
Какие уроки входят в комплект?
1. Раскрутка группы в контакте. Пошаговый план
2. Разбор особенностей фреймворков PHP
3. Создание интерактивной карты
4. Раскрутка сайта. Пошаговый план
5. Создание гостевой книги без MySQL
6. Проектирование базы данных
7. Парсинг сайтов
8. Создание доски объявлений
9. Способы монетизации сайтов (2015 год)
10. Вёрстка Landing page
Продолжительность: 02:35:19
Качество видео: PCRec
Видео: AVC/H.264, 1280x720, ~800 Kbps
Аудио: AAC, 2 ch, 126 kb/s

Mediainfo:

Общее
Полное имя : G:\Коллекция VIP-видеоуроков\Вёрстка Landing page\lesson.mp4
Формат : MPEG-4
Профиль формата : Base Media / Version 2
Идентификатор кодека : mp42 (M4V /mp42/isom)
Размер файла : 144 Мбайт
Продолжительность : 21 м.
Общий поток : 929 Кбит/сек
Дата кодирования : UTC 2015-07-13 10:57:29
Дата пометки : UTC 2015-07-13 10:57:29
Видео
Идентификатор : 1
Формат : AVC
Формат/Информация : Advanced Video Codec
Профиль формата : High@L3.1
Параметр CABAC формата : Да
Параметр ReFrames формата : 4 кадра
Параметр GOP формата : M=1, N=75
Идентификатор кодека : avc1
Идентификатор кодека/Информация : Advanced Video Coding
Продолжительность : 21 м.
Продолжительность оригинала : 21 м.
Битрейт : 801 Кбит/сек
Ширина : 1280 пикселей
Высота : 720 пикселей
Соотношение сторон : 16:9
Режим частоты кадров : Постоянный
Частота кадров : 15,000 кадров/сек
Цветовое пространство : YUV
Субдискретизация насыщенности : 4:2:0
Битовая глубина : 8 бит
Тип развёртки : Прогрессивная
Бит/(Пиксели*Кадры) : 0.058
Размер потока : 124 Мбайт (86%)
Размер потока оригинала : 124 Мбайт (86%)
Язык : English
Дата кодирования : UTC 2015-07-13 10:57:29
Дата пометки : UTC 2015-07-13 10:57:29
Цветовой диапазон : Limited
Основные цвета : BT.709
Характеристики трансфера : BT.709
Коэффициенты матрицы : BT.709
mdhd_Duration : 1296260
Аудио
Идентификатор : 2
Формат : AAC
Формат/Информация : Advanced Audio Codec
Профиль формата : LC
Идентификатор кодека : 40
Продолжительность : 21 м.
Продолжительность оригинала : 21 м.
Вид битрейта : Постоянный
Битрейт : 126 Кбит/сек
Каналы : 2 канала
Расположение каналов : Front: L R
Частота : 44,1 КГц
Частота кадров : 43,066 кадра/сек (1024 spf)
Метод сжатия : С потерями
Размер потока : 19,4 Мбайт (14%)
Размер потока оригинала : 19,4 Мбайт (14%)
Язык : English
Дата кодирования : UTC 2015-07-13 10:57:29
Дата пометки : UTC 2015-07-13 10:57:29
mdhd_Duration : 1295550
Скриншоты:

[Цитировать]



Показать сообщения:    

Текущее время: 10-Дек 09:57

Часовой пояс: UTC + 3


Вы не можете начинать темы
Вы не можете отвечать на сообщения
Вы не можете редактировать свои сообщения
Вы не можете удалять свои сообщения
Вы не можете голосовать в опросах
Вы не можете прикреплять файлы к сообщениям
Вы не можете скачивать файлы

!ВНИМАНИЕ!
Сайт не предоставляет электронные версии произведений, а занимается лишь коллекционированием и каталогизацией ссылок, присылаемых и публикуемых на форуме нашими читателями. Если вы являетесь правообладателем какого-либо представленного материала и не желаете, чтобы ссылка на него находилась в нашем каталоге, свяжитесь с нами, и мы незамедлительно удалим ее. Файлы для обмена на трекере предоставлены пользователями сайта, и администрация не несет ответственности за их содержание. Просьба не заливать файлы, защищенные авторскими правами, а также файлы нелегального содержания!