[ Сегодня идет свободное скачивание без начисления Download ]


Статистика раздачи
Нет
 
   
 
 
 
Дьявол / Devil
«Зло не приходит случайно»
?Год выпуска: 2010
?Страна: США
?Производство: Media Rights Capital
?Жанр: Ужасы, триллер, детектив
?Режиссёр: Джон Эрик Даудл
?В ролях: Крис Мессина, Логан Маршалл-Грин, Дженни О`Хара, Бояна Новакович, Букем Вудбайн, Джеффри Аренд, Джейкоб Варгас, Мэтт Крэвен, Джошуа Пиис, Каролин Давернас.
?Перевод: Дубляж
?Озвучка: Blu-ray
?Субтитры: Русские (UTF-8)
?Описание: Несколько людей, оказавшихся в застрявшем лифте, со временем понимают, что среди них присутствует сам дьявол.

?Качество: BDRip-AVC
?Продолжительность: 01:20:28 час.
?Формат: MKV
?Главы: Есть
?Видео кодек: AVC
?Аудио кодек: AC3
?Видео: 1920 x 800 (2.40:1), 23.976 fps, ~7896 kbps, 0.203 bit/ pixel
?Аудио: 48 kHz, AC3 5.1 ch, ~384 Kbps

MediaInfo

General
Unique ID : 175665408884773018457720088914676581095 (0x8427ED5780749D92B510A5C53BC282E7)
Complete name : D:\фильмы\Djavol.2010.1080р.mkv
Format : Matroska
Format version : Version 2
File size : 4.50 GiB
Duration : 1h 20mn
Overall bit rate mode : Variable
Overall bit rate : 8 009 Kbps
Movie name : Rip by NigAndr (NOLIMITS-TEAM.RU)
Encoded date : UTC 2011-02-01 20:38:56
Writing application : mkvmerge v3.0.0 ('Hang up your Hang-Ups') built on Dec 12 2009 15:20:35
Writing library : libebml v0.7.9 + libmatroska v0.8.1
Video
ID : 1
Format : AVC
Format/Info : Advanced Video Codec
Format profile : High@L4.1
Format settings, CABAC : Yes
Format settings, ReFrames : 3 frames
Codec ID : V_MPEG4/ISO/AVC
Duration : 1h 20mn
Bit rate mode : Variable
Bit rate : 7 466 Kbps
Nominal bit rate : 7 896 Kbps
Maximum bit rate : 17.5 Mbps
Width : 1 920 pixels
Height : 800 pixels
Display aspect ratio : 2.40:1
Frame rate : 23.976 fps
Color space : YUV
Chroma subsampling : 4:2:0
Bit depth : 8 bits
Scan type : Progressive
Bits/(Pixel*Frame) : 0.203
Stream size : 4.20 GiB (93%)
Title : Дьявол.(2010).1080р.[NoLimits-Team.ru]
Writing library : x264 core 112 r1834 a51816a
Encoding settings : cabac=1 / ref=3 / deblock=1:0:0 / analyse=0x3:0x113 / me=hex / subme=7 / psy=1 / psy_rd=1.00:0.00 / mixed_ref=1 / me_range=16 / chroma_me=1 / trellis=1 / 8x8dct=1 / cqm=0 / deadzone=21,11 / fast_pskip=1 / chroma_qp_offset=-2 / threads=6 / sliced_threads=0 / slices=4 / nr=0 / decimate=1 / interlaced=0 / constrained_intra=0 / bframes=3 / b_pyramid=1 / b_adapt=1 / b_bias=0 / direct=1 / weightb=1 / open_gop=0 / weightp=1 / keyint=24 / keyint_min=1 / scenecut=40 / intra_refresh=0 / rc_lookahead=24 / rc=abr / mbtree=1 / bitrate=7896 / ratetol=1.0 / qcomp=0.60 / qpmin=0 / qpmax=51 / qpstep=4 / vbv_maxrate=17500 / vbv_bufsize=14500 / ip_ratio=1.10 / aq=1:1.00 / nal_hrd=vbr
Language : English
Default : Yes
Forced : No
Audio
ID : 2
Format : AC-3
Format/Info : Audio Coding 3
Mode extension : CM (complete main)
Codec ID : A_AC3
Duration : 1h 20mn
Bit rate mode : Constant
Bit rate : 384 Kbps
Channel(s) : 6 channels
Channel positions : Front: L C R, Side: L R, LFE
Sampling rate : 48.0 KHz
Bit depth : 16 bits
Compression mode : Lossy
Stream size : 221 MiB (5%)
Title : Дубляж., Blu-ray
Language : Russian
Default : Yes
Forced : No
Text
ID : 3
Format : UTF-8
Codec ID : S_TEXT/UTF8
Codec ID/Info : UTF-8 Plain Text
Title : Forced
Language : Russian
Default : Yes
Forced : No
Menu
00:00:00.000 : en:00:00:00.000
00:04:10.750 : en:00:04:10.750
00:07:00.629 : en:00:07:00.629
00:10:07.524 : en:00:10:07.524
00:14:37.585 : en:00:14:37.585
00:18:17.388 : en:00:18:17.388
00:21:09.226 : en:00:21:09.226
00:25:28.610 : en:00:25:28.610
00:30:11.184 : en:00:30:11.184
00:34:42.706 : en:00:34:42.706
00:37:10.437 : en:00:37:10.437
00:41:31.489 : en:00:41:31.489
00:45:33.856 : en:00:45:33.856
00:49:19.832 : en:00:49:19.832
00:53:40.134 : en:00:53:40.134
00:57:36.912 : en:00:57:36.912
01:02:01.343 : en:01:02:01.343
01:06:31.946 : en:01:06:31.946
01:13:40.875 : en:01:13:40.875
01:15:47.710 : en:01:15:47.710
[th]http://pics.kz/i1/10/2b/102b97f71327fd34d020fb6d39d5cd46.png[/th] [th]http://pics.kz/i3/c7/08/c7080320224221622774bc2928918e79.png[/th] [th]http://pics.kz/i3/27/d5/27d56b843068094d9a10283829b0072d.png[/th] [Стол заказов][Прием РГ][О нас "RG Dark Lords]

[Цитировать]



Показать сообщения:    

Текущее время: 11-Дек 14:50

Часовой пояс: UTC + 3


Вы не можете начинать темы
Вы не можете отвечать на сообщения
Вы не можете редактировать свои сообщения
Вы не можете удалять свои сообщения
Вы не можете голосовать в опросах
Вы не можете прикреплять файлы к сообщениям
Вы не можете скачивать файлы

!ВНИМАНИЕ!
Сайт не предоставляет электронные версии произведений, а занимается лишь коллекционированием и каталогизацией ссылок, присылаемых и публикуемых на форуме нашими читателями. Если вы являетесь правообладателем какого-либо представленного материала и не желаете, чтобы ссылка на него находилась в нашем каталоге, свяжитесь с нами, и мы незамедлительно удалим ее. Файлы для обмена на трекере предоставлены пользователями сайта, и администрация не несет ответственности за их содержание. Просьба не заливать файлы, защищенные авторскими правами, а также файлы нелегального содержания!