[ Сегодня идет свободное скачивание без начисления Download ]


Статистика раздачи
Скачал: [ 1 ]
 
   
 
Top  
 
 
Репортерша / Whiskey Tango Foxtrot (2016) BDRip 1080p Информация о фильме
Название: Репортерша
Оригинальное название: Whiskey Tango Foxtrot
Год выпуска: 2016
Жанр: Драма, комедия, военный, биография
Выпущено: США, Broadway Video Little Stranger, Paramount Pictures
Режиссер: Гленн Фикарра, Джон Рекуа
В ролях: Тина Фей, Марго Робби, Мартин Фриман, Альфред Молина, Кристофер Эбботт, Билли Боб Торнтон, Николас Браун, Стивен Пикок, Шейла Ванд, Эван Йоникит
О фильме: Осознав, что она завязла в повседневной рутине, репортер Ким Бейкер решает встряхнуться и сменить кабинетные будни в Нью-Йорке на опасную работу в Афганистане. Вдали от дома и полностью за пределами собственной зоны комфорта, шокированная местными обычаями Ким заводит дружбу с рискованной репортершей Таней Вандерпоел, суровым Полковником и обаятельным фотожурналистом, которые помогают ей освоиться в этом сумасшедшем новом мире. Окруженная хаосом, Ким открывает свое истинное призвание - рисковать всем для поиска очередной главной новости.

Продолжительность: 01:51:48
Перевод: Дублированный
Субтитры: Английские (Full, Forced), русские (Полные, форсированные)
Файл
Качество: BDRip (1080p)
Видео: MPEG-4 AVC, 13379 Кбит/с, 1920x1080
Аудио #1: Русский (AC3, 6 ch, 384 Кбит/с)
Аудио #2: Английский (AC3, 6 ch, 448 Кбит/с)

МедиаИнфо

Формат : Matroska
Версия формата : Version 2
Размер файла : 11,1 Гбайт
Продолжительность : 1 ч. 51 м.
Общий поток : 14,2 Мбит/сек
Название фильма : ~v ad~
Дата кодирования : UTC 2016-07-20 20:40:25
Программа кодирования : mkvmerge v6.5.0 ('Isn't she lovely') built on Oct 20 2013 12:50:05
Библиотека кодирования : libebml v1.3.0 + libmatroska v1.4.1
Видео
Идентификатор : 1
Формат : AVC
Формат/Информация : Advanced Video Codec
Профиль формата : High@L4.1
Параметр CABAC формата : Да
Параметр ReFrames формата : 4 кадра
Идентификатор кодека : V_MPEG4/ISO/AVC
Продолжительность : 1 ч. 51 м.
Битрейт : 13,4 Мбит/сек
Ширина : 1920 пикселей
Высота : 1080 пикселей
Соотношение сторон : 16:9
Режим частоты кадров : Постоянный
Частота кадров : 23,976 (24000/1001) кадра/сек
Цветовое пространство : YUV
Субдискретизация насыщенности : 4:2:0
Битовая глубина : 8 бит
Тип развёртки : Прогрессивная
Бит/(Пиксели*Кадры) : 0.269
Размер потока : 10,2 Гбайт (92%)
Заголовок : ~V~
Библиотека кодирования : x264 core 148 r2694 3b70645
Настройки программы : cabac=1 / ref=4 / deblock=1:-3:-3 / analyse=0x3:0x133 / me=umh / subme=11 / psy=1 / psy_rd=1.10:0.05 / mixed_ref=1 / me_range=32 / chroma_me=1 / trellis=2 / 8x8dct=1 / cqm=0 / deadzone=21,11 / fast_pskip=0 / chroma_qp_offset=-3 / threads=12 / lookahead_threads=1 / sliced_threads=0 / nr=0 / decimate=0 / interlaced=0 / bluray_compat=0 / constrained_intra=0 / bframes=9 / b_pyramid=2 / b_adapt=2 / b_bias=0 / direct=3 / weightb=1 / open_gop=0 / weightp=2 / keyint=240 / keyint_min=23 / scenecut=40 / intra_refresh=0 / rc=2pass / mbtree=0 / bitrate=13379 / ratetol=1.0 / qcomp=0.60 / qpmin=0 / qpmax=69 / qpstep=4 / cplxblur=20.0 / qblur=0.5 / ip_ratio=1.30 / pb_ratio=1.24 / aq=3:0.80
Язык : English
Default : Да
Forced : Нет
Аудио #1
Идентификатор : 2
Формат : AC-3
Формат/Информация : Audio Coding 3
Расширение режима : CM (complete main)
Параметр Endianness формата : Big
Идентификатор кодека : A_AC3
Продолжительность : 1 ч. 51 м.
Вид битрейта : Постоянный
Битрейт : 384 Кбит/сек
Каналы : 6 каналов
Расположение каналов : Front: L C R, Side: L R, LFE
Частота : 48,0 КГц
Частота кадров : 31,250 кадров/сек (1536 spf)
Метод сжатия : С потерями
Размер потока : 307 Мбайт (3%)
Заголовок : iTunes
Язык : Russian
Default : Да
Forced : Да
Аудио #2
Идентификатор : 3
Формат : AC-3
Формат/Информация : Audio Coding 3
Расширение режима : CM (complete main)
Параметр Endianness формата : Big
Идентификатор кодека : A_AC3
Продолжительность : 1 ч. 51 м.
Вид битрейта : Постоянный
Битрейт : 448 Кбит/сек
Каналы : 6 каналов
Расположение каналов : Front: L C R, Side: L R, LFE
Частота : 48,0 КГц
Частота кадров : 31,250 кадров/сек (1536 spf)
Метод сжатия : С потерями
Размер потока : 358 Мбайт (3%)
Язык : English
Default : Нет
Forced : Нет
Текст #1
Идентификатор : 4
Формат : UTF-8
Идентификатор кодека : S_TEXT/UTF8
Идентификатор кодека/Информация : UTF-8 Plain Text
Заголовок : Fors
Язык : English
Default : Нет
Forced : Нет
Текст #2
Идентификатор : 5
Формат : UTF-8
Идентификатор кодека : S_TEXT/UTF8
Идентификатор кодека/Информация : UTF-8 Plain Text
Заголовок : Full
Язык : English
Default : Нет
Forced : Нет
Меню
00:00:00.000 : :Chapter 01
00:07:46.466 : :Chapter 02
00:13:47.910 : :Chapter 03
00:23:38.834 : :Chapter 04
00:30:28.660 : :Chapter 05
00:37:27.036 : :Chapter 06
00:45:36.775 : :Chapter 07
00:55:40.587 : :Chapter 08
01:05:02.106 : :Chapter 09
01:12:14.455 : :Chapter 10
01:17:50.332 : :Chapter 11
01:24:56.007 : :Chapter 12
01:34:04.972 : :Chapter 13
01:39:50.651 : :Chapter 14
01:44:39.519 : :Chapter 15

х264

x264 [info]: frame I:1166 Avg QP:15.93 size:235738
x264 [info]: frame P:34401 Avg QP:18.26 size:122998
x264 [info]: frame B:125273 Avg QP:19.76 size: 53531

Скриншоты


Сэмпл

[Цитировать]



Показать сообщения:    

Текущее время: 11-Дек 16:45

Часовой пояс: UTC + 3


Вы не можете начинать темы
Вы не можете отвечать на сообщения
Вы не можете редактировать свои сообщения
Вы не можете удалять свои сообщения
Вы не можете голосовать в опросах
Вы не можете прикреплять файлы к сообщениям
Вы не можете скачивать файлы

!ВНИМАНИЕ!
Сайт не предоставляет электронные версии произведений, а занимается лишь коллекционированием и каталогизацией ссылок, присылаемых и публикуемых на форуме нашими читателями. Если вы являетесь правообладателем какого-либо представленного материала и не желаете, чтобы ссылка на него находилась в нашем каталоге, свяжитесь с нами, и мы незамедлительно удалим ее. Файлы для обмена на трекере предоставлены пользователями сайта, и администрация не несет ответственности за их содержание. Просьба не заливать файлы, защищенные авторскими правами, а также файлы нелегального содержания!