[ Сегодня идет свободное скачивание без начисления Download ]


Статистика раздачи
Нет
 
   
 
Top  
 
 

[sh]Снежная королева[/sh]
[sh]»[/sh] Год выпуска: 2012
[sh]»[/sh] Страна: Россия
[sh]»[/sh] Производство: Инлэй Фильм, Wizart Animation
[sh]»[/sh] Жанр: Мультфильм, фэнтези, приключения, семейный
[sh]»[/sh] Режиссер: Максим Свешников, Владлен Барбэ
[sh]»[/sh] В ролях: Иван Охлобыстин, Нюша Шурочкина, Анна Ардова, Рамиля Искандер, Дмитрий Нагиев, Лиза Арзамасова, Галина Тюнина, Юрий Стоянов, Людмила Артемьева, Михаил Тихонов
[sh]»[/sh] Перевод: Не требуется
[sh]»[/sh] Субтитры: Нет
[sh]»[/sh] Описание: В стремлении сотворить Новый мир — холодный и практичный, где четкость линий призвана заменить эмоции, а северный ветер должен остудить людские души, Снежная Королева избавляется от всех представителей творческих профессий. Маленькой и смелой Герде, отправившейся в опасное путешествие, чтобы спасти своего брата Кая, предстоит столкнуться с этим холодным миром Снежной Королевы. Преодолевая все сложности и преграды на пути к своей цели, Герда не только обретает семью, но и веру в себя, находит поддержку новых друзей. [sh]»[/sh] Качество: BDRip
[sh]» Продолжительность: 01:16:00
[sh]»[/sh] Формат: AVI
[sh]» Видео кодек: XviD
[sh]»[/sh] Аудио кодек: МР3
[sh]»[/sh] Видео: 720x400 (16:9), 24.000 fps, XviD, ~1 232 kbps avg, 0.178 bit/pixel
[sh]»[/sh] Аудио: 48 kHz, МР3, 2 ch, 128 kbps - |Оригинал|
Премьера (мир): 1 января 2013
Премьера (РФ): 31 декабря 2012, «Bazelevs Distribution»

Media Info

[sh]
General
Complete name : D:\Snezhnaya.Koroleva.2012.BDRip.avi
Format : AVI
Format/Info : Audio Video Interleave
File size : 745 MiB
Duration : 1h 16mn
Overall bit rate : 1 370 Kbps
Writing application : VirtualDubMod 1.5.10.3 (build 2550/release)
Writing library : VirtualDubMod build 2550/release
Video
ID : 0
Format : MPEG-4 Visual
Format profile : Advanced Simple@L5
Format settings, BVOP : 1
Format settings, QPel : No
Format settings, GMC : No warppoints
Format settings, Matrix : Custom
Codec ID : XVID
Codec ID/Hint : XviD
Duration : 1h 16mn
Bit rate : 1 232 Kbps
Width : 720 pixels
Height : 400 pixels
Display aspect ratio : 16:9
Frame rate : 24.000 fps
Color space : YUV
Chroma subsampling : 4:2:0
Bit depth : 8 bits
Scan type : Progressive
Compression mode : Lossy
Bits/(Pixel*Frame) : 0.178
Stream size : 670 MiB (90%)
Writing library : XviD 65
Audio
ID : 1
Format : MPEG Audio
Format version : Version 1
Format profile : Layer 3
Mode : Joint stereo
Mode extension : MS Stereo
Codec ID : 55
Codec ID/Hint : MP3
Duration : 1h 16mn
Bit rate mode : Constant
Bit rate : 128 Kbps
Channel(s) : 2 channels
Sampling rate : 48.0 KHz
Compression mode : Lossy
Stream size : 69.6 MiB (9%)
Alignment : Aligned on interleaves
Interleave, duration : 42 ms (1.00 video frame)
Interleave, preload duration : 504 ms
Writing library : LAME3.99 (alpha
[/sh]
[th]http://torrentsclub.org/pictures/45abf0eff2fc1b3fdd...36952d3.jpg[/th]
[th]http://torrentsclub.org/pictures/b9e35b0fb58f3fe526...5bd0823.jpg[/th]
[th]http://torrentsclub.org/pictures/b9e2a8cf51375e8fce...e3b1c13.jpg[/th]

[Цитировать]

Топик был перенесен из форума Новинки кинопроката в форум Отечественные мультфильмы
Henkok



Показать сообщения:    

Текущее время: 07-Дек 13:35

Часовой пояс: UTC + 3


Вы не можете начинать темы
Вы не можете отвечать на сообщения
Вы не можете редактировать свои сообщения
Вы не можете удалять свои сообщения
Вы не можете голосовать в опросах
Вы не можете прикреплять файлы к сообщениям
Вы не можете скачивать файлы

!ВНИМАНИЕ!
Сайт не предоставляет электронные версии произведений, а занимается лишь коллекционированием и каталогизацией ссылок, присылаемых и публикуемых на форуме нашими читателями. Если вы являетесь правообладателем какого-либо представленного материала и не желаете, чтобы ссылка на него находилась в нашем каталоге, свяжитесь с нами, и мы незамедлительно удалим ее. Файлы для обмена на трекере предоставлены пользователями сайта, и администрация не несет ответственности за их содержание. Просьба не заливать файлы, защищенные авторскими правами, а также файлы нелегального содержания!