[ Сегодня идет свободное скачивание без начисления Download ]


Статистика раздачи
Скачал: [ 3 ]
 
   
 
Top  
 
 
Алексей Бекер | Художественная обработка фото (2016) PCRec - Автор (режиссер): Алексей Бекер
Жанр: Ретушь фото
Описание:
Обучающий мастер-класс на тему художественной обработки фото содержит два видеоурока, подробный psd файл и фото для обучения. Проделать эти уроки под силу каждому, будут пошагово раскрыты нюансы обработки, не обязательно уметь отлично рисовать, графический планшет здесь тоже не обязателен Первый видеоурок это «Художественная обработка фото с заменой фона» и второй «Обработка свадебной фотографии».
Продолжительность: 00:45:20
Качество видео: PCRec
Видео: AVC/H.264, 1920x1080, ~13.9 Mb/s
Аудио: AAC, 2 ch, 192 kb/s, CBR

Mediainfo:

General
Complete name : J:Алексей Бекер - Художественная обработка фото (2016)\2. Обработка свадебной фотографии\Видео.mp4
Format : MPEG-4
Format profile : Base Media / Version 2
Codec ID : mp42 (mp42/isom)
File size : 1.99 GiB
Duration : 20 min
Overall bit rate mode : Variable
Overall bit rate : 14.1 Mb/s
Encoded date : UTC 2016-05-18 11:52:55
Tagged date : UTC 2016-05-18 11:52:55
Video
ID : 2
Format : AVC
Format/Info : Advanced Video Codec
Format profile : Main@L4
Format settings, CABAC : Yes
Format settings, ReFrames : 3 frames
Format settings, GOP : M=4, N=15
Codec ID : avc1
Codec ID/Info : Advanced Video Coding
Duration : 20 min
Bit rate mode : Variable
Bit rate : 13.9 Mb/s
Maximum bit rate : 24.0 Mb/s
Width : 1 920 pixels
Height : 1 080 pixels
Display aspect ratio : 16:9
Frame rate mode : Constant
Frame rate : 30.000 FPS
Standard : NTSC
Color space : YUV
Chroma subsampling : 4:2:0
Bit depth : 8 bits
Scan type : Progressive
Bits/(Pixel*Frame) : 0.224
Stream size : 1.96 GiB (99%)
Language : English
Encoded date : UTC 2016-05-18 11:52:55
Tagged date : UTC 2016-05-18 11:52:55
Color range : Limited
Audio
ID : 1
Format : AAC
Format/Info : Advanced Audio Codec
Format profile : LC
Codec ID : 40
Duration : 20 min
Bit rate mode : Constant
Bit rate : 192 kb/s
Channel(s) : channel0
Channel(s)_Original : 2 channels
Channel positions : Front: L R
Sampling rate : 48.0 kHz
Frame rate : 46.875 FPS (1024 spf)
Compression mode : Lossy
Stream size : 27.7 MiB (1%)
Language : English
Encoded date : UTC 2016-05-18 11:52:55
Tagged date : UTC 2016-05-18 11:52:55
Скриншоты:

[Цитировать]



Показать сообщения:    

Текущее время: 21-Янв 03:03

Часовой пояс: UTC + 3


Вы не можете начинать темы
Вы не можете отвечать на сообщения
Вы не можете редактировать свои сообщения
Вы не можете удалять свои сообщения
Вы не можете голосовать в опросах
Вы не можете прикреплять файлы к сообщениям
Вы не можете скачивать файлы

!ВНИМАНИЕ!
Сайт не предоставляет электронные версии произведений, а занимается лишь коллекционированием и каталогизацией ссылок, присылаемых и публикуемых на форуме нашими читателями. Если вы являетесь правообладателем какого-либо представленного материала и не желаете, чтобы ссылка на него находилась в нашем каталоге, свяжитесь с нами, и мы незамедлительно удалим ее. Файлы для обмена на трекере предоставлены пользователями сайта, и администрация не несет ответственности за их содержание. Просьба не заливать файлы, защищенные авторскими правами, а также файлы нелегального содержания!