[ Сегодня идет свободное скачивание без начисления Download ]


Статистика раздачи
Нет
 
   
 
Top  
 
 
Приходит дракон / A Dragon Arrives!
Информация о фильме
Название: Приходит дракон
Оригинальное название: A Dragon Arrives!
Год выхода: 2016
Жанр: ужасы, детектив, приключения
Режиссер: Мани Хагиги
В ролях: Ма Амир Джадиди, Эхсан Гударзи, Гомаюн Жанизадех, Надер Фаллах, Али Багери, Киана Таджаммольни Хагиги
О фильме: 1965 год, остров Кешм. Оранжевый Шевроле Импала останавливается у старого кладбища посреди пустыни — там внутри заброшенного корабля покончил с собой политзаключенный. Местные поговаривают о подземном драконе: земля на кладбище содрогается, чтобы принять тело. Одетые с иголочки детектив, звукорежиссёр и геолог приезжают на место необъяснимых событий, чтобы изучить природные аномалии и разобраться в преступлении. Троица не без увлечения следует абсурдным законам острова. Полвека спустя в архивах найдут записи этого путешествия, а вместе с ними — и показания детективов на допросе. Выходит, все трое были арестованы, а материалы засекречены, но почему? Дела минувших дней станут поводом для нового расследования, где найдется место и роковой женщине со шпионским прошлым, и мистификаторам, и гипнотической по красоте электронной музыке.

Страна: Иран
Продолжительность: 01:43:11
Перевод: Профессиональный (многоголосый) [iTunes]
Файл
Качество: WEB-DL 720p
Формат: MKV
Видео: AVC, 3401 Kbps, 1280x536
Звук: АС3, 384 Кb/s (6 ch)
Субтитры: нет
Дополнительно: Сохранены оригинальные главы (Чаптеры)

MediaInfo:

Format : Matroska
Format version : Version 4 / Version 2
File size : 2.78 GiB
Duration : 1h 43mn
Overall bit rate : 3 862 Kbps
Movie name : Rip by basma4i
Encoded date : UTC 2016-07-21 13:37:41
Writing application : mkvmerge v8.2.0 ('World of Adventure') 64bit
Writing library : libebml v1.3.1 + libmatroska v1.4.2
DURATION : 01:43:11.008000000
NUMBER_OF_FRAMES : 193469
NUMBER_OF_BYTES : 297168384
_STATISTICS_WRITING_APP : mkvmerge v8.2.0 ('World of Adventure') 64bit
_STATISTICS_WRITING_DATE_UTC : 2016-07-21 13:37:41
_STATISTICS_TAGS : BPS DURATION NUMBER_OF_FRAMES NUMBER_OF_BYTES
Video
ID : 1
Format : AVC
Format/Info : Advanced Video Codec
Format profile : [email protected]
Format settings, CABAC : Yes
Format settings, ReFrames : 2 frames
Codec ID : V_MPEG4/ISO/AVC
Duration : 1h 43mn
Bit rate : 3 401 Kbps
Width : 1 280 pixels
Height : 536 pixels
Display aspect ratio : 2.40:1
Frame rate mode : Constant
Frame rate : 25.000 fps
Color space : YUV
Chroma subsampling : 4:2:0
Bit depth : 8 bits
Scan type : Progressive
Bits/(Pixel*Frame) : 0.198
Stream size : 2.45 GiB (88%)
Language : English
Default : Yes
Forced : No
Audio
ID : 2
Format : AC-3
Format/Info : Audio Coding 3
Mode extension : CM (complete main)
Format settings, Endianness : Big
Codec ID : A_AC3
Duration : 1h 43mn
Bit rate mode : Constant
Bit rate : 384 Kbps
Channel(s) : 6 channels
Channel positions : Front: L C R, Side: L R, LFE
Sampling rate : 48.0 KHz
Compression mode : Lossy
Stream size : 283 MiB (10%)
Language : Russian
Default : No
Forced : No
Menu
00:00:00.000 : en:chapter 1
00:35:28.000 : en:chapter 2
01:07:41.000 : en:chapter 3
01:40:16.000 : en:chapter 4

Скриншоты

[Цитировать]



Показать сообщения:    

Текущее время: 06-Дек 19:05

Часовой пояс: UTC + 3


Вы не можете начинать темы
Вы не можете отвечать на сообщения
Вы не можете редактировать свои сообщения
Вы не можете удалять свои сообщения
Вы не можете голосовать в опросах
Вы не можете прикреплять файлы к сообщениям
Вы не можете скачивать файлы

!ВНИМАНИЕ!
Сайт не предоставляет электронные версии произведений, а занимается лишь коллекционированием и каталогизацией ссылок, присылаемых и публикуемых на форуме нашими читателями. Если вы являетесь правообладателем какого-либо представленного материала и не желаете, чтобы ссылка на него находилась в нашем каталоге, свяжитесь с нами, и мы незамедлительно удалим ее. Файлы для обмена на трекере предоставлены пользователями сайта, и администрация не несет ответственности за их содержание. Просьба не заливать файлы, защищенные авторскими правами, а также файлы нелегального содержания!