[ Сегодня идет свободное скачивание без начисления Download ]


Статистика раздачи
Скачал: [ 3 ]
 
   
 
Top  
 
 
Завтрак у папы
Информация о фильме
Оригинальное название: Завтрак у папы
Год выпуска: 2016
Жанр: Комедия
Выпущено: Россия, All Media Company
Режиссер: Мария Кравченко
В ролях: Юрий Колокольников, Катерина Шпица, Луиза-Габриэла Бровина, Полина Максимова, Валентин Пелка, Кристина Шаповалова, Никита Тарасов, Михаил Полицеймако
О фильме: У молодого, привлекательного и самовлюбленного Саши Титова в жизни, на первый взгляд, все сложилось как нельзя лучше: он успешный креативный директор рекламного агентства и полностью удовлетворен ни к чему не обязывающими отношениями с коллегой Оксаной Тарелкиной. Но однажды утром на пороге своего пентхауса Саша встречает милую десятилетнюю девчушку Алю, которая представляется его дочкой. Ворвавшись в жизнь Саши, смышленая и любознательная Аля серьезно намерена надолго в ней обосноваться. Но готов ли Саша принять все сюрпризы, приготовленные судьбой, и в корне изменить привычную холостяцкую жизнь?

Файл
Качество: WEB-DLRip (AVC)
Видео: MPEG-4 AVC, 1888 Кбит/с, 720x302, 24 кадр/с
Аудио: AC3, 2 ch, 384 Кбит/с
Продолжительность: 01:31:52
Язык: Русский
Озвучивание - (iTunes Russia)

x264

x264 [info]: frame I:1689 Avg QP:12.35 size: 52379
x264 [info]: frame P:34868 Avg QP:14.79 size: 19327
x264 [info]: frame B:95732 Avg QP:16.19 size: 5610

Инфо-файл

Общее
Уникальный идентификатор : 179153686104956069042741862042600661024 (0x86C7BEAFE9366765AC43FA6C5516E020)
Полное имя : D:ВидеоZavtrak.U.Papi.2016.WEB-DLRip.AVC. ExKinoRay.mkv
Формат : Matroska
Версия формата : Version 2
Размер файла : 1,46 Гбайт
Продолжительность : 1 ч. 31 м.
Общий поток : 2272 Кбит/сек
Дата кодирования : UTC 2016-07-21 12:05:09
Программа кодирования : mkvmerge v7.8.0 ('River Man') 32bit built on Apr 3 2015 12:11:22
Библиотека кодирования : libebml v1.3.1 + libmatroska v1.4.2
Видео
Идентификатор : 1
Формат : AVC
Формат/Информация : Advanced Video Codec
Профиль формата : High@L4.1
Параметр CABAC формата : Да
Параметр ReFrames формата : 10 кадров
Идентификатор кодека : V_MPEG4/ISO/AVC
Продолжительность : 1 ч. 31 м.
Битрейт : 1888 Кбит/сек
Ширина : 720 пикселей
Высота : 302 пикселя
Соотношение сторон : 2,40:1
Режим частоты кадров : Постоянный
Частота кадров : 24,000 кадра/сек
Цветовое пространство : YUV
Субдискретизация насыщенности : 4:2:0
Битовая глубина : 8 бит
Тип развёртки : Прогрессивная
Бит/(Пиксели*Кадры) : 0.362
Размер потока : 1,18 Гбайт (81%)
Библиотека кодирования : x264 core 146 r2538 121396c
Настройки программы : cabac=1 / ref=10 / deblock=1:-3:-3 / analyse=0x3:0x113 / me=umh / subme=11 / psy=1 / psy_rd=1.00:0.05 / mixed_ref=1 / me_range=48 / chroma_me=1 / trellis=2 / 8x8dct=1 / cqm=0 / deadzone=21,11 / fast_pskip=0 / chroma_qp_offset=-3 / threads=6 / lookahead_threads=1 / sliced_threads=0 / nr=0 / decimate=0 / interlaced=0 / bluray_compat=0 / constrained_intra=0 / bframes=10 / b_pyramid=2 / b_adapt=2 / b_bias=0 / direct=3 / weightb=1 / open_gop=0 / weightp=2 / keyint=240 / keyint_min=23 / scenecut=40 / intra_refresh=0 / rc_lookahead=40 / rc=2pass / mbtree=0 / bitrate=1888 / ratetol=1.0 / qcomp=0.60 / qpmin=0 / qpmax=69 / qpstep=4 / cplxblur=20.0 / qblur=0.5 / vbv_maxrate=14000 / vbv_bufsize=14000 / nal_hrd=none / filler=0 / ip_ratio=1.40 / pb_ratio=1.30 / aq=1:1.00
Default : Да
Forced : Нет
Аудио
Идентификатор : 2
Формат : AC-3
Формат/Информация : Audio Coding 3
Расширение режима : CM (complete main)
Параметр Endianness формата : Big
Идентификатор кодека : A_AC3
Продолжительность : 1 ч. 31 м.
Вид битрейта : Постоянный
Битрейт : 384 Кбит/сек
Каналы : 2 канала
Расположение каналов : Front: L R
Частота : 48,0 КГц
Битовая глубина : 16 бит
Метод сжатия : С потерями
Размер потока : 252 Мбайт (17%)
Default : Да
Forced : Нет

Скриншоты



[Цитировать]



Показать сообщения:    

Текущее время: 09-Дек 12:46

Часовой пояс: UTC + 3


Вы не можете начинать темы
Вы не можете отвечать на сообщения
Вы не можете редактировать свои сообщения
Вы не можете удалять свои сообщения
Вы не можете голосовать в опросах
Вы не можете прикреплять файлы к сообщениям
Вы не можете скачивать файлы

!ВНИМАНИЕ!
Сайт не предоставляет электронные версии произведений, а занимается лишь коллекционированием и каталогизацией ссылок, присылаемых и публикуемых на форуме нашими читателями. Если вы являетесь правообладателем какого-либо представленного материала и не желаете, чтобы ссылка на него находилась в нашем каталоге, свяжитесь с нами, и мы незамедлительно удалим ее. Файлы для обмена на трекере предоставлены пользователями сайта, и администрация не несет ответственности за их содержание. Просьба не заливать файлы, защищенные авторскими правами, а также файлы нелегального содержания!