[ Сегодня идет свободное скачивание без начисления Download ]


Статистика раздачи
Нет
 
   
 
Top  
 
 
В Америке / In America (2002) WEB-DL 720p Информация о фильме
Название: В Америке
Оригинальное название: In America
Год выхода: 2002
Жанр: драма
Режиссер: Джим Шеридан
В ролях: Пэдди Консидайн, Саманта Мортон, Сара Болгер, Эмма Болгер, Нил Джонс, Рэндолл Карлтон, Киаран Кронин, Джимон Хонсу, Хуан Карлос Эрнандес, Най Херон
О фильме:
Тысячи, миллионы людей стремятся в Соединенные Штаты Америки в поисках лучшей жизни, надеясь на исполнение своих самых заветных желаний. Семья театрального актера Джонни переезжает из Ирландии в Нью-Йорк, чтобы начать свою жизнь заново и избавиться от призраков прошлого. Почти мистический злой рок преследовал их, горе поселилось в их доме, и они были вынуждены бежать, чтобы спасти свою семью.
Без денег и с имуществом в виде пары чемоданов, старой машины и видеокамеры, но полные оптимизма и веры в свои силы, Джонни и его жена Сара пытаются адаптироваться к жестоким и странным нравам Нью-Йорка.
Их дочки — десятилетняя Кристи и маленькая Ариэль, наоборот, считают Америку волшебной страной, где живут чудесные люди. Как ни странно, именно вера дочерей в доброту людей и любовь ко всем окружающим помогут Джонни и Саре спасти семью от распада.

Страна: Ирландия, Великобритания
Студия: East of Harlem (UK) Ltd., Harlem Film Productions Ltd., Hell's Kitchen Films
Продолжительность: 01:45:24
Перевод: Профессиональный (многоголосый, закадровый) Двадцатый Век Фокс СНГ
Файл
Формат: Matroska
Видео: 1280x692 at 23.976 fps, MPEG-4 AVC, ~4000 kbps avg
Аудио#1: Russian: 48 kHz, AC3 Dolby Digital, 3/2 (L,C,R,l,r) + LFE ch, ~448.00 kbps avg |Многоголосый закадровый, Двадцатый Век Фокс СНГ|
Аудио#2: English: 48 kHz, AC3 Dolby Digital, 3/2 (L,C,R,l,r) + LFE ch, ~384.00 kbps avg
Субтитры: Russian, Ukrainian, English
***Сохранены и подписаны оригинальные главы.
***Релиз - Oberton.

Знаете ли вы, что...

Сценарий фильма в значительной степени основан на автобиографических фактах жизни самого Джима Шеридана.
Фильм посвящен памяти Фрэнки Шеридана, брата режиссёра и сценариста Джима Шеридана. В одном из интервью режиссёр также заявил, что персонаж Фрэнки, сына Джонни и Сары, основан на его брате, умершем в десятилетнем возрасте.
На начальной стадии производства картины в качестве основных кандидатур на главные роли рассматривались Юэн МакГрегор и Кейт Уинслетт. Тогда рабочим названием проекта было «К востоку от Гарлема».
Сестер Кристи и Ариэль сыграли настоящие сестры Сара и Эмма Болджер. Сначала роль получила младшая Эмма, которая заявила, что режиссёр должен пригласить и её старшую сестру Сару. В течение долгого времени найти подходящую девочку не удавалось, и он таки пригласил Сару на прослушивания, после чего она и получила роль в картине.
Изначально режиссёр хотел, чтобы Кристи сыграла девочка постарше, которой было бы 12-13 лет.
На съёмках фильма девочки сами давали команду «мотор» и «снято» для каждой сцены. Режиссёр посчитал, что так они будут чувствовать себя комфортнее во время съёмочного процесса.
Сцены уличной ярмарки были сняты на улице Parnell Street в Дублине, Ирландия, ради чего на три дня перекрывалось всё движение. Помещение закрытой закусочной в эти дни использовалось для размещения и отдыха замерзающих на холоде участников массовки.

MI

Общее
Уникальный идентификатор : 221458015092733217565098359860093980154 (0xA69B43241270B5F8BB62F4B6CB630DFA)
Полное имя : In.America.2002.WEBDL.720p.Rus.Eng.Subs-Oberton.mkv
Формат : Matroska
Версия формата : Version 2
Размер файла : 3,69 Гбайт
Продолжительность : 1 ч. 45 м.
Общий поток : 5016 Кбит/сек
Название фильма : In America / В Америці / В Америке (2002)
Дата кодирования : UTC 2016-07-21 13:52:24
Программа кодирования : mkvmerge v3.4.0 ('Rapunzel') сборка от May 15 2010 09:38:20
Библиотека кодирования : libebml v0.8.0 + libmatroska v0.9.0
Видео
Идентификатор : 1
Формат : AVC
Формат/Информация : Advanced Video Codec
Профиль формата : High@L3.1
Параметр CABAC формата : Нет
Параметр ReFrames формата : 2 кадра
Идентификатор кодека : V_MPEG4/ISO/AVC
Продолжительность : 1 ч. 45 м.
Битрейт : 4084 Кбит/сек
Ширина : 1280 пикселей
Высота : 692 пикселя
Соотношение сторон : 1,85:1
Режим частоты кадров : Постоянный
Частота кадров : 23,976 кадра/сек
Цветовое пространство : YUV
Субдискретизация насыщенности : 4:2:0
Битовая глубина : 8 бит
Тип развёртки : Прогрессивная
Бит/(Пиксели*Кадры) : 0.192
Размер потока : 3,01 Гбайт (81%)
Заголовок : WEB-DL 720p H264 - ViGi
Язык : English
Default : Нет
Forced : Нет
Цветовой диапазон : Limited
Основные цвета : BT.709
Характеристики трансфера : BT.709
Коэффициенты матрицы : BT.709
Аудио #1
Идентификатор : 2
Формат : AC-3
Формат/Информация : Audio Coding 3
Расширение режима : CM (complete main)
Параметр Endianness формата : Big
Идентификатор кодека : A_AC3
Продолжительность : 1 ч. 45 м.
Вид битрейта : Постоянный
Битрейт : 448 Кбит/сек
Каналы : 6 каналов
Расположение каналов : Front: L C R, Side: L R, LFE
Частота : 48,0 КГц
Метод сжатия : С потерями
Размер потока : 338 Мбайт (9%)
Заголовок : Rus DD5.1 MVO (лицензия), corrected by Oberton
Язык : Russian
Default : Да
Forced : Нет
Аудио #2
Идентификатор : 3
Формат : AC-3
Формат/Информация : Audio Coding 3
Расширение режима : CM (complete main)
Параметр Endianness формата : Big
Идентификатор кодека : A_AC3
Продолжительность : 1 ч. 45 м.
Вид битрейта : Постоянный
Битрейт : 384 Кбит/сек
Каналы : 6 каналов
Расположение каналов : Front: L C R, Side: L R, LFE
Частота : 48,0 КГц
Метод сжатия : С потерями
Размер потока : 290 Мбайт (8%)
Заголовок : Eng DD5.1 - ViGi
Язык : English
Default : Нет
Forced : Нет
Текст #1
Идентификатор : 4
Формат : UTF-8
Идентификатор кодека : S_TEXT/UTF8
Идентификатор кодека/Информация : UTF-8 Plain Text
Заголовок : DVD9, corrected & resync by Oberton
Язык : Ukrainian
Default : Нет
Forced : Нет
Текст #2
Идентификатор : 5
Формат : UTF-8
Идентификатор кодека : S_TEXT/UTF8
Идентификатор кодека/Информация : UTF-8 Plain Text
Заголовок : DVD9, corrected & resync by Oberton
Язык : Russian
Default : Нет
Forced : Нет
Текст #3
Идентификатор : 6
Формат : UTF-8
Идентификатор кодека : S_TEXT/UTF8
Идентификатор кодека/Информация : UTF-8 Plain Text
Заголовок : WEB-DL - ViGi
Язык : English
Default : Нет
Forced : Нет
Меню
00:00:00.000 : en:Three Wishes (Main Titles)
00:01:39.000 : en:Welcome to America
00:03:45.000 : en:New York
00:05:47.000 : en:The Apartment
00:09:20.000 : en:Settling In
00:11:10.000 : en:Heat & Humidity
00:16:22.000 : en:A Dollar Ninety-Nine
00:20:57.000 : en:Game of Chance
00:26:46.000 : en:The Blood of an Irishwoman
00:35:43.000 : en:School Girls
00:38:20.000 : en:Halloween
00:41:58.000 : en:Mateo
00:47:58.000 : en:The Family Friend
00:53:48.000 : en:For the Baby's Sake
00:57:40.000 : en:A Ghost
01:01:20.000 : en:Desperado
01:04:37.000 : en:Mateo's Disease
01:07:43.000 : en:The Other Side
01:10:29.000 : en:Going Home
01:13:15.000 : en:Money Problems
01:15:54.000 : en:Where's Dad?
01:19:06.000 : en:Bad Blood
01:23:02.000 : en:Christy's Choice
01:26:31.000 : en:I Can't Cry
01:29:33.000 : en:Signs of Life
01:31:55.000 : en:Mateo's Gift
01:34:27.000 : en:My Third Wish
01:38:59.000 : en:End Titles

Скриншоты

[Цитировать]



Показать сообщения:    

Текущее время: 09-Дек 10:48

Часовой пояс: UTC + 3


Вы не можете начинать темы
Вы не можете отвечать на сообщения
Вы не можете редактировать свои сообщения
Вы не можете удалять свои сообщения
Вы не можете голосовать в опросах
Вы не можете прикреплять файлы к сообщениям
Вы не можете скачивать файлы

!ВНИМАНИЕ!
Сайт не предоставляет электронные версии произведений, а занимается лишь коллекционированием и каталогизацией ссылок, присылаемых и публикуемых на форуме нашими читателями. Если вы являетесь правообладателем какого-либо представленного материала и не желаете, чтобы ссылка на него находилась в нашем каталоге, свяжитесь с нами, и мы незамедлительно удалим ее. Файлы для обмена на трекере предоставлены пользователями сайта, и администрация не несет ответственности за их содержание. Просьба не заливать файлы, защищенные авторскими правами, а также файлы нелегального содержания!