[ Сегодня идет свободное скачивание без начисления Download ]


Статистика раздачи
Нет
 
   
 
Top  
 
 
Особо опасны / Savages[Расширенная версия / Unrated Cut]«Молодые, красивые, дерзкие»- Год выпуска: 2012
Страна: США
Производство: Ixtlan Corporation, Onda Entertainment, Relativity Media
Жанр: триллер, драма, криминал
Режиссер: Оливер Стоун | Oliver Stone
В ролях: Тейлор Китч, Блейк Лайвли, Аарон Тейлор-Джонсон, Джон Траволта, Бенисио Дель Торо, Сальма Хайек, Эмиль Хирш, Демиан Бишир, Антонио Джарамилло, Хоакин Косио
Перевод: Профессиональный (полное дублирование) + Оригинал
Субтитры: softsub (SRT) | Русские (Forced, Full), Английские (SDH, Full)Описание:
Молодые миллионеры Бен и Чон ведут дела на побережье Калифорнии. Бен — выдающийся ботаник и талантливый бизнесмен, Чон — мастер возвращения долгов и борьбы с конкурентами. В их работе много сложных моментов, ведь они выращивают лучшую в мире траву. Особо серьезные проблемы решает знакомый агент ФБР.
Но с одной не сможет помочь даже он. Сверхприбыльным бизнесом заинтересовался мексиканский картель. Его возглавляет прекрасная Елена, и она нашла главную слабость друзей — и Бен, и Чон принадлежат одной девушке. Ради прелестной О. они готовы на все. Любовь делает нас особо опасными.
-[imdb]tt1615065[/imdb] [kp]505903[/kp]
Дата премьеры (мир): 25 июня 2012
Дата премьеры (РФ): 13 сентября 2012, «UPI»
Релиз на DVD: 31 января 2013, «Двадцатый Век Фокс СНГ»
Релиз на Blu-Ray: 31 января 2013, «Двадцатый Век Фокс СНГ»
-Качество: BDRip - AVC | исх. Особо опасны / Savages (2012) [Unrated Cut] Blu-ray CEE 1080p AVC DTS 5.1
Продолжительность: 02:21:09
Формат: MKV
Видео кодек: H.264
Аудио кодек: AC3
Видео: 1152x480 (2,40:1), 23,976 fps, H.264 ~4 210 kbps avg, 0.318 bit/pixel
Аудио #1: 48 kHz, AC3, 3/2 (L,C,R,l,r) + LFE ch, ~448.00 kbps avg | Профессиональный (полнное дублирование)
Аудио #2: 48 kHz, AC3, 3/2 (L,C,R,l,r) + LFE ch, ~448.00 kbps avg | Оригинал (Английский)

MediaInfo | x264

x264

video.avs: 1152x480, 24000/1001 fps, 203077 frames
y4m [info]: 1152x480p 1:1 @ 24000/1001 fps (cfr)
x264 [info]: using SAR=1/1
x264 [info]: using cpu capabilities: MMX2 SSE2Fast SSSE3 FastShuffle SSE4.2 AVX
x264 [info]: profile High, level 4.0
x264 [info]: cabac=1 ref=12 deblock=1:-2:-1 analyse=0x3:0x133 me=umh subme=11 psy=1 fade_compensate=0.00 psy_rd=1.06:0.02 mixed_ref=1 me_range=48 chroma_me=1 trellis=2 8x8dct=1 cqm=0 deadzone=21,11 fast_pskip=0 chroma_qp_offset=-3 threads=12 lookahead_threads=2 sliced_threads=0 nr=0 decimate=0 interlaced=0 bluray_compat=0 constrained_intra=0 bframes=12 b_pyramid=2 b_adapt=2 b_bias=0 direct=3 weightb=1 open_gop=0 weightp=2 keyint=250 keyint_min=23 scenecut=40 intra_refresh=0 rc=crf mbtree=0 crf=18.7000 qcomp=0.70 qpmin=0 qpmax=69 qpstep=4 ip_ratio=1.25 pb_ratio=1.35 aq=3:0.80 zones=196958,203078,q=35
x264 [info]: frame I:1482 Avg QP:19.22 size: 89224
x264 [info]: frame P:45140 Avg QP:19.72 size: 43881
x264 [info]: frame B:156455 Avg QP:21.95 size: 15668
x264 [info]: consecutive B-frames: 2.4% 2.8% 8.5% 19.5% 18.7% 39.2% 5.0% 1.4% 1.0% 0.7% 0.4% 0.3% 0.2%
x264 [info]: mb I I16..4: 4.1% 79.8% 16.1%
x264 [info]: mb P I16..4: 0.4% 17.0% 1.3% P16..4: 27.3% 34.1% 14.7% 2.3% 0.2% skip: 2.8%
x264 [info]: mb B I16..4: 0.1% 2.5% 0.1% B16..8: 38.3% 21.7% 4.3% direct: 6.7% skip:26.4% L0:43.0% L1:44.2% BI:12.8%
x264 [info]: 8x8 transform intra:90.2% inter:61.1%
x264 [info]: direct mvs spatial:99.7% temporal:0.3%
x264 [info]: coded y,uvDC,uvAC intra: 96.5% 93.6% 89.3% inter: 34.6% 39.0% 23.2%
x264 [info]: i16 v,h,dc,p: 43% 14% 5% 39%
x264 [info]: i8 v,h,dc,ddl,ddr,vr,hd,vl,hu: 7% 7% 9% 11% 15% 14% 14% 12% 13%
x264 [info]: i4 v,h,dc,ddl,ddr,vr,hd,vl,hu: 8% 7% 4% 10% 17% 16% 15% 12% 13%
x264 [info]: i8c dc,h,v,p: 56% 13% 10% 21%
x264 [info]: Weighted P-Frames: Y:12.1% UV:7.6%
x264 [info]: ref P L0: 44.5% 11.5% 18.4% 6.3% 5.3% 3.4% 3.3% 1.7% 1.7% 1.2% 1.3% 1.1% 0.3% 0.0%
x264 [info]: ref B L0: 73.4% 11.7% 5.3% 2.9% 1.9% 1.6% 1.2% 0.8% 0.6% 0.4% 0.2%
x264 [info]: ref B L1: 92.9% 7.1%
x264 [info]: kb/s:4311.09
[21:17:22,42 02.02.2013] ======== encoded 203077 frames, 8.50 fps, 4311.09 kb/s, duration 6:38:24.67 ========
Полное имя : Savages 2012 x264 BDRip-AVC AC3 Sub Gambit.mkv
Формат : Matroska
Версия формата : Version 2
Размер файла : 5,14 Гбайт
Продолжительность : 2 ч. 21 м.
Общий поток : 5209 Кбит/сек
Дата кодирования : UTC 2013-02-02 18:47:51
Программа кодирования : mkvmerge v5.6.0 (\'Kenya Kane\') built on May 27 2012 16:44:04
Библиотека кодирования : libebml v1.2.3 + libmatroska v1.3.0
Видео
Идентификатор : 1
Формат : AVC
Формат/Информация : Advanced Video Codec
Профиль формата : High@L4.0
Параметр CABAC формата : Да
Параметр ReFrames формата : 12 кадров
Идентификатор кодека : V_MPEG4/ISO/AVC
Продолжительность : 2 ч. 21 м.
Битрейт : 4210 Кбит/сек
Ширина : 1152 пикселя
Высота : 480 пикселей
Соотношение сторон : 2,40:1
Частота кадров : 23,976 кадра/сек
Цветовое пространство : YUV
Субдискретизация насыщенности : 4:2:0
Битовая глубина : 8 бит
Тип развёртки : Прогрессивная
Бит/(Пиксели*Кадры) : 0.318
Размер потока : 4,15 Гбайт (81%)
Заголовок : Savages 2012 x264 BDRip-AVC AC3 Sub Gambit
Библиотека кодирования : x264 core 129 r2245kMod bc13772
Настройки программы : cabac=1 / ref=12 / deblock=1:-2:-1 / analyse=0x3:0x133 / me=umh / subme=11 / psy=1 / fade_compensate=0.00 / psy_rd=1.06:0.02 / mixed_ref=1 / me_range=48 / chroma_me=1 / trellis=2 / 8x8dct=1 / cqm=0 / deadzone=21,11 / fast_pskip=0 / chroma_qp_offset=-3 / threads=12 / lookahead_threads=2 / sliced_threads=0 / nr=0 / decimate=0 / interlaced=0 / bluray_compat=0 / constrained_intra=0 / bframes=12 / b_pyramid=2 / b_adapt=2 / b_bias=0 / direct=3 / weightb=1 / open_gop=0 / weightp=2 / keyint=250 / keyint_min=23 / scenecut=40 / intra_refresh=0 / rc=crf / mbtree=0 / crf=18.7000 / qcomp=0.70 / qpmin=0 / qpmax=69 / qpstep=4 / ip_ratio=1.25 / pb_ratio=1.35 / aq=3:0.80 / zones=196958,203078,q=35
Язык : English
Default : Да
Forced : Нет
Коэффициенты матрицы : BT.709-5, BT.1361, IEC 61966-2-4 709, SMPTE RP177
Аудио #1
Идентификатор : 2
Формат : AC-3
Формат/Информация : Audio Coding 3
Расширение режима : CM (complete main)
Параметр Endianness формата : Big
Идентификатор кодека : A_AC3
Продолжительность : 2 ч. 21 м.
Вид битрейта : Постоянный
Битрейт : 448 Кбит/сек
Каналы : 6 каналов
Расположение каналов : Front: L C R, Side: L R, LFE
Частота : 48,0 КГц
Битовая глубина : 16 бит
Метод сжатия : С потерями
Размер потока : 452 Мбайт (9%)
Заголовок : Russia, 48 kHz, AC3 Audio, 5.1, ~ 448 kbps, Dub
Язык : Russian
Default : Да
Forced : Нет
Аудио #2
Идентификатор : 3
Формат : AC-3
Формат/Информация : Audio Coding 3
Расширение режима : CM (complete main)
Параметр Endianness формата : Big
Идентификатор кодека : A_AC3
Продолжительность : 2 ч. 21 м.
Вид битрейта : Постоянный
Битрейт : 448 Кбит/сек
Каналы : 6 каналов
Расположение каналов : Front: L C R, Side: L R, LFE
Частота : 48,0 КГц
Битовая глубина : 16 бит
Метод сжатия : С потерями
Размер потока : 452 Мбайт (9%)
Заголовок : English, 48 kHz, AC3 Audio, 5.1, ~ 448 kbps, Original
Язык : English
Default : Нет
Forced : Нет
Текст #1
Идентификатор : 4
Формат : UTF-8
Идентификатор кодека : S_TEXT/UTF8
Идентификатор кодека/Информация : UTF-8 Plain Text
Заголовок : Russian, Forced
Язык : Russian
Default : Да
Forced : Нет
Текст #2
Идентификатор : 5
Формат : UTF-8
Идентификатор кодека : S_TEXT/UTF8
Идентификатор кодека/Информация : UTF-8 Plain Text
Заголовок : Russian, Full
Язык : Russian
Default : Нет
Forced : Нет
Текст #3
Идентификатор : 6
Формат : UTF-8
Идентификатор кодека : S_TEXT/UTF8
Идентификатор кодека/Информация : UTF-8 Plain Text
Заголовок : English
Язык : English
Default : Нет
Forced : Нет
Текст #4
Идентификатор : 7
Формат : UTF-8
Идентификатор кодека : S_TEXT/UTF8
Идентификатор кодека/Информация : UTF-8 Plain Text
Заголовок : English, SDH
Язык : English
Default : Нет
Forced : Нет
Меню
00:00:00.000 : en:Chapter 00
00:06:42.152 : en:Chapter 01
00:13:40.737 : en:Chapter 02
00:20:58.215 : en:Chapter 03
00:24:36.934 : en:Chapter 04
00:31:40.899 : en:Chapter 05
00:41:50.257 : en:Chapter 06
00:48:33.869 : en:Chapter 07
00:57:19.519 : en:Chapter 08
01:02:04.554 : en:Chapter 09
01:11:21.819 : en:Chapter 10
01:19:53.747 : en:Chapter 11
01:28:03.236 : en:Chapter 12
01:36:29.867 : en:Chapter 13
01:43:49.849 : en:Chapter 14
01:48:41.348 : en:Chapter 15
01:56:37.032 : en:Chapter 16
02:02:58.496 : en:Chapter 17
02:11:47.024 : en:Chapter 18
02:16:49.910 : en:Chapter 19

Скриншоты

[Цитировать]



Показать сообщения:    

Текущее время: 07-Дек 13:44

Часовой пояс: UTC + 3


Вы не можете начинать темы
Вы не можете отвечать на сообщения
Вы не можете редактировать свои сообщения
Вы не можете удалять свои сообщения
Вы не можете голосовать в опросах
Вы не можете прикреплять файлы к сообщениям
Вы не можете скачивать файлы

!ВНИМАНИЕ!
Сайт не предоставляет электронные версии произведений, а занимается лишь коллекционированием и каталогизацией ссылок, присылаемых и публикуемых на форуме нашими читателями. Если вы являетесь правообладателем какого-либо представленного материала и не желаете, чтобы ссылка на него находилась в нашем каталоге, свяжитесь с нами, и мы незамедлительно удалим ее. Файлы для обмена на трекере предоставлены пользователями сайта, и администрация не несет ответственности за их содержание. Просьба не заливать файлы, защищенные авторскими правами, а также файлы нелегального содержания!