[ Сегодня идет свободное скачивание без начисления Download ]


Статистика раздачи
Нет
 
   
 
Top  
 
 
[Viscorbel.com] The Tower [2014, RUS] Год выпуска: 2014
Сайт производителя: Viscorbel.com
Автор: Austris Cingulis
Продолжительность: 5:17:30
Тип раздаваемого материала: Видеоурок
Язык: Русский (перевод Alex_Cg)
Описание:
При моделировании больших и сложных проектов появляется ряд уникальных задач:
- Как смоделировать все эффективно?
- Как наполнить этажи деталями?
- Как быстро смоделировать здания заднего плана?
- Как добавить людей и реалистичные деревья?
- Как добавить движущийся транспорт?
- Как случайно осветить комнаты?
- Как использовать элементы рендера для композа красивой картинки?
и т.д.
Этот учебный курс был создан с помощью 3ds Max 2014, а также V-Ray 3.0, однако можно использовать более старые версии обеих программ (например 3ds Max 2011).
Необходимое программное обеспечение: Autodesk 3ds Max, Chaos Group V-Ray 3.0, Adobe Photoshop.
Файлы примеров: присутствуют
Формат видео: MP4
Видео: AVC (H264), 1920х1080, 15 fps
Аудио: AAC, 44100 Hz, mono, 128 Кбит/с

Mediainfo

GeneralComplete name : 00. Intro.mp4Format : MPEG-4Format profile : Base MediaCodec ID : isomFile size : 9.48 MiBDuration : 2mn 10sOverall bit rate : 609 KbpsWriting application : Lavf55.19.104
VideoID : 1Format : AVCFormat/Info : Advanced Video CodecFormat profile : High@L4.0Format settings, CABAC : YesFormat settings, ReFrames : 4 framesCodec ID : avc1Codec ID/Info : Advanced Video CodingDuration : 2mn 10sBit rate : 477 KbpsWidth : 1 920 pixelsHeight : 1 080 pixelsDisplay aspect ratio : 16:9Frame rate mode : ConstantFrame rate : 15.000 fpsColor space : YUVChroma subsampling : 4:2:0Bit depth : 8 bitsScan type : ProgressiveBits/(Pixel*Frame) : 0.015Stream size : 7.42 MiB (78%)Writing library : x264 core 140 r2377 1ca7bb9Language : English
AudioID : 2Format : AACFormat/Info : Advanced Audio CodecFormat profile : LCCodec ID : 40Duration : 2mn 10sDuration_LastFrame : 41msBit rate mode : ConstantBit rate : 128 KbpsChannel(s) : 2 channelsChannel(s)_Original : 1 channelChannel positions : Front: CSampling rate : 44.1 KHzCompression mode : LossyStream size : 1.99 MiB (21%)Language : Russian

Скриншоты

[Цитировать]



Показать сообщения:    

Текущее время: 09-Дек 18:27

Часовой пояс: UTC + 3


Вы не можете начинать темы
Вы не можете отвечать на сообщения
Вы не можете редактировать свои сообщения
Вы не можете удалять свои сообщения
Вы не можете голосовать в опросах
Вы не можете прикреплять файлы к сообщениям
Вы не можете скачивать файлы

!ВНИМАНИЕ!
Сайт не предоставляет электронные версии произведений, а занимается лишь коллекционированием и каталогизацией ссылок, присылаемых и публикуемых на форуме нашими читателями. Если вы являетесь правообладателем какого-либо представленного материала и не желаете, чтобы ссылка на него находилась в нашем каталоге, свяжитесь с нами, и мы незамедлительно удалим ее. Файлы для обмена на трекере предоставлены пользователями сайта, и администрация не несет ответственности за их содержание. Просьба не заливать файлы, защищенные авторскими правами, а также файлы нелегального содержания!