[ Today is free to download without increasing Download ]

DL-List and Torrent activity
[Viscorbel.com] The Tower [2014, RUS] Год выпуска: 2014
Сайт производителя: Viscorbel.com
Автор: Austris Cingulis
Продолжительность: 5:17:30
Тип раздаваемого материала: Видеоурок
Язык: Русский (перевод Alex_Cg)
При моделировании больших и сложных проектов появляется ряд уникальных задач:
- Как смоделировать все эффективно?
- Как наполнить этажи деталями?
- Как быстро смоделировать здания заднего плана?
- Как добавить людей и реалистичные деревья?
- Как добавить движущийся транспорт?
- Как случайно осветить комнаты?
- Как использовать элементы рендера для композа красивой картинки?
и т.д.
Этот учебный курс был создан с помощью 3ds Max 2014, а также V-Ray 3.0, однако можно использовать более старые версии обеих программ (например 3ds Max 2011).
Необходимое программное обеспечение: Autodesk 3ds Max, Chaos Group V-Ray 3.0, Adobe Photoshop.
Файлы примеров: присутствуют
Формат видео: MP4
Видео: AVC (H264), 1920х1080, 15 fps
Аудио: AAC, 44100 Hz, mono, 128 Кбит/с


GeneralComplete name : 00. Intro.mp4Format : MPEG-4Format profile : Base MediaCodec ID : isomFile size : 9.48 MiBDuration : 2mn 10sOverall bit rate : 609 KbpsWriting application : Lavf55.19.104
VideoID : 1Format : AVCFormat/Info : Advanced Video CodecFormat profile : High@L4.0Format settings, CABAC : YesFormat settings, ReFrames : 4 framesCodec ID : avc1Codec ID/Info : Advanced Video CodingDuration : 2mn 10sBit rate : 477 KbpsWidth : 1 920 pixelsHeight : 1 080 pixelsDisplay aspect ratio : 16:9Frame rate mode : ConstantFrame rate : 15.000 fpsColor space : YUVChroma subsampling : 4:2:0Bit depth : 8 bitsScan type : ProgressiveBits/(Pixel*Frame) : 0.015Stream size : 7.42 MiB (78%)Writing library : x264 core 140 r2377 1ca7bb9Language : English
AudioID : 2Format : AACFormat/Info : Advanced Audio CodecFormat profile : LCCodec ID : 40Duration : 2mn 10sDuration_LastFrame : 41msBit rate mode : ConstantBit rate : 128 KbpsChannel(s) : 2 channelsChannel(s)_Original : 1 channelChannel positions : Front: CSampling rate : 44.1 KHzCompression mode : LossyStream size : 1.99 MiB (21%)Language : Russian



Display posts:    

Current time is: 24-Oct 17:09

All times are UTC + 3

You cannot post new topics in this forum
You cannot reply to topics in this forum
You cannot edit your posts in this forum
You cannot delete your posts in this forum
You cannot vote in polls in this forum
You cannot attach files in this forum
You cannot download files in this forum

The site does not give electronic versions of products, and is engaged only in a collecting and cataloguing of the references sent and published at a forum by our readers. If you are the legal owner of any submitted material and do not wish that the reference to it was in our catalogue, contact us and we shall immediately remove her. Files for an exchange on tracker are given by users of a site, and the administration does not bear the responsibility for their maintenance. The request to not fill in the files protected by copyrights, and also files of the illegal maintenance!